Minetti Quartet - Mendelssohn & Schubert: String Quartets (2018) [Official Digital Download]

Posted By: SERTiL
Minetti Quartet - Mendelssohn & Schubert: String Quartets (2018) [Official Digital Download]

Minetti Quartet - Mendelssohn & Schubert: String Quartets (2018)
FLAC (tracks) 24-bit/48 kHz | Time - 63:15 minutes | 627 MB
Studio Master, Official Digital Download | Artwork: Digital Booklet

The connection between the life and work of the composer seems hardly more compelling than in the case of Mendel ssohn’s String Quartet no. 6 in F minor op. 80. Nothing seems more able to demystify a work of music than death itself. The title page of the manuscript of the String Quartet in D minor bears the date 'In March 1824' in Schubert’s own hand. And indeed, in the previous year Schubert did experience tragedy: professional failure and private disappointments tormented the composer in 1823.

Tracklist:
1. String Quartet No. 6 in F Minor, Op. 80, MWV R37: I. Allegro vivace assai 07:37
2. String Quartet No. 6 in F Minor, Op. 80, MWV R37: II. Allegro assai 04:33
3. String Quartet No. 6 in F Minor, Op. 80, MWV R37: III. Adagio 07:38
4. String Quartet No. 6 in F Minor, Op. 80, MWV R37: IV. Finale. Allegro molto 05:55
5. String Quartet No. 14 in D Minor, D. 810 "Death and the Maiden": I. Allegro 11:35
6. String Quartet No. 14 in D Minor, D. 810 "Death and the Maiden": II. Andante con moto 13:07
7. String Quartet No. 14 in D Minor, D. 810 "Death and the Maiden": III. Scherzo. Allegro molto 03:45
8. String Quartet No. 14 in D Minor, D. 810 "Death and the Maiden": IV. Presto 09:15

foobar2000 1.3.7 / Dynamic Range Meter 1.1.1
log date: 2018-06-13 12:11:38

––––––––––––––––––––––––––––––––––––––––
Analyzed: Minetti Quartet / Mendelssohn & Schubert: String Quartets
––––––––––––––––––––––––––––––––––––––––

DR Peak RMS Duration Track
––––––––––––––––––––––––––––––––––––––––
DR14 -3.65 dB -23.03 dB 7:38 01-String Quartet No. 6 in F Minor, Op. 80, MWV R37: I. Allegro vivace assai
DR13 -1.90 dB -21.17 dB 4:34 02-String Quartet No. 6 in F Minor, Op. 80, MWV R37: II. Allegro assai
DR15 -3.73 dB -25.68 dB 7:38 03-String Quartet No. 6 in F Minor, Op. 80, MWV R37: III. Adagio
DR13 -2.63 dB -21.94 dB 5:45 04-String Quartet No. 6 in F Minor, Op. 80, MWV R37: IV. Finale. Allegro molto
DR15 -1.50 dB -24.30 dB 11:35 05-String Quartet No. 14 in D Minor, D. 810 "Death and the Maiden": I. Allegro
DR14 -5.17 dB -26.14 dB 13:08 06-String Quartet No. 14 in D Minor, D. 810 "Death and the Maiden": II. Andante con moto
DR14 -4.93 dB -24.21 dB 3:46 07-String Quartet No. 14 in D Minor, D. 810 "Death and the Maiden": III. Scherzo. Allegro molto
DR15 -0.10 dB -22.49 dB 9:16 08-String Quartet No. 14 in D Minor, D. 810 "Death and the Maiden": IV. Presto
––––––––––––––––––––––––––––––––––––––––

Number of tracks: 8
Official DR value: DR14

Samplerate: 48000 Hz
Channels: 2
Bits per sample: 24
Bitrate: 1434 kbps
Codec: FLAC
================================================================================


Thanks to the Original customer.