Chet Atkins - Superpickers & Chet Atkins Picks The Best (1973-1967) [Reissue 2018] PS3 ISO + Hi-Res FLAC

Posted By: HDAtall
Chet Atkins - Superpickers & Chet Atkins Picks The Best (1973-1967) [Reissue 2018] PS3 ISO + Hi-Res FLAC

Chet Atkins - Superpickers / Chet Atkins Picks The Best (1973-1967) [Reissue 2018]
PS3 Rip | SACD ISO | DST64 2.0 & 5.1 > 1-bit/2.8224 MHz | 63:11 minutes | Scans included | 2,83 GB
or FLAC 2.0 Stereo (converted with foobar2000 to tracks) 24bit/88,2 kHz | Scans included | 1,31 GB
2LP on 1SACD | Features Stereo and Multichannel surround sound | Label: Vocalion # CDLK 4610

On Superpickers, Atkins joins together with an A-list of Nashville session musicians for a set of picking extravaganzas. The players make up a well-chosen band, and Atkins gives them plenty of space to solo on folk standards like "Mr. Bojangles" and "City of New Orleans," as well as tunes that are just platforms for the many variations. Atkins himself is goaded into some wonderful playing as a result, and Superpickers is one of his best albums. Unfortunately, Picks on the Hits, originally released in the late summer of 1972, is one of those easy listening toss-offs, a collection of tunes that had been high in the pop charts recently, tarted out with strings and occasional choruses, with Atkins sticking his guitar in here and there.

Tracklist:

01. Paramaribo
02. Fiddlin Around
03. Mr Bojangles
04. Beef and Biscuits
05. Sweet Dreams
06. Just Another Rag
07. Canadian Pacific
08. City of New Orleans
09. Bells of Saint Marys
10. Are You from Dixie
11. You ll Never Walk Alone
12. Lovely Weather
13. Insensatez How Insensitive
14. Colonel Bogey
15. Nuages
16. Anna El Negro Zumbon
17. Battle Hymn of the Republic
18. All theme from the film Run for Your Wife
19. El Paso
20. Tears
21. I Wish I Knew
22. Ay Ay Ay

Tracks "01-10" is "Superpickers" (LP '1973)
Tracks "11-22" is "Chet Atkins Picks the Best" (LP '1967)

Remastered from the Original Master tapes by Michael J. Dutton.

foobar2000 1.3.17 / Dynamic Range Meter 1.1.1

––––––––––––––––––––––––––––––––––––––––
Analyzed: Chet Atkins / Superpickers & Best
––––––––––––––––––––––––––––––––––––––––

DR Peak RMS Duration Track
––––––––––––––––––––––––––––––––––––––––
DR9 -8.86 dB -27.19 dB 2:30 01-Paramaribo
DR8 -6.83 dB -27.62 dB 3:12 02-Fiddlin Around
DR9 -9.08 dB -28.84 dB 4:38 03-Mr Bojangles
DR7 -6.94 dB -26.11 dB 2:38 04-Beef and Biscuits
DR8 -7.33 dB -26.19 dB 2:49 05-Sweet Dreams
DR8 -6.98 dB -26.58 dB 2:40 06-Just Another Rag
DR8 -8.89 dB -27.62 dB 3:52 07-Canadian Pacific
DR9 -8.07 dB -27.76 dB 3:29 08-City of New Orleans
DR8 -8.41 dB -28.63 dB 2:52 09-Bells of Saint Marys
DR9 -6.59 dB -28.65 dB 3:05 10-Are You from Dixie
DR8 -9.17 dB -28.60 dB 2:53 11-You ll Never Walk Alone
DR9 -13.34 dB -34.37 dB 2:46 12-Lovely Weather
DR9 -9.88 dB -28.50 dB 2:44 13-Insensatez How Insensitive
DR9 -11.00 dB -30.29 dB 1:59 14-Colonel Bogey
DR9 -10.51 dB -31.08 dB 2:56 15-Nuages
DR10 -10.45 dB -29.01 dB 2:29 16-Anna El Negro Zumbon
DR10 -8.64 dB -29.97 dB 3:14 17-Battle Hymn of the Republic
DR9 -9.31 dB -29.76 dB 2:33 18-All theme from the film Run for Your Wife
DR8 -10.70 dB -29.29 dB 2:29 19-El Paso
DR8 -13.57 dB -30.75 dB 2:46 20-Tears
DR9 -9.22 dB -29.22 dB 2:07 21- I Wish I Knew
DR9 -9.51 dB -30.71 dB 2:31 22-Ay Ay Ay
––––––––––––––––––––––––––––––––––––––––

Number of tracks: 22
Official DR value: DR9

Samplerate: 2822400 Hz / PCM Samplerate: 88200 Hz
Channels: 6
Bits per sample: 1
Bitrate: 16934 kbps
Codec: DST64
================================================================================

––––––––––––––––––––––––––––––––––––––––
Analyzed: Chet Atkins / Superpickers & Best
––––––––––––––––––––––––––––––––––––––––

DR Peak RMS Duration Track
––––––––––––––––––––––––––––––––––––––––
DR11 -8.10 dB -21.55 dB 2:31 01-Paramaribo
DR11 -8.98 dB -23.23 dB 3:12 02-Fiddlin Around
DR12 -8.49 dB -23.97 dB 4:38 03-Mr Bojangles
DR12 -6.19 dB -21.25 dB 2:38 04-Beef and Biscuits
DR11 -7.92 dB -21.62 dB 2:49 05-Sweet Dreams
DR10 -6.46 dB -19.65 dB 2:40 06-Just Another Rag
DR10 -7.23 dB -20.26 dB 3:52 07-Canadian Pacific
DR12 -8.28 dB -23.36 dB 3:29 08-City of New Orleans
DR11 -7.43 dB -21.70 dB 2:53 09-Bells of Saint Marys
DR12 -6.01 dB -22.99 dB 3:05 10-Are You from Dixie
DR10 -10.21 dB -22.63 dB 2:53 11-You ll Never Walk Alone
DR11 -9.53 dB -25.25 dB 2:46 12-Lovely Weather
DR10 -10.07 dB -23.00 dB 2:44 13-Insensatez How Insensitive
DR10 -12.36 dB -25.89 dB 1:59 14-Colonel Bogey
DR11 -11.12 dB -24.88 dB 2:56 15-Nuages
DR11 -10.46 dB -23.68 dB 2:29 16-Anna El Negro Zumbon
DR10 -9.93 dB -23.32 dB 3:14 17-Battle Hymn of the Republic
DR11 -11.77 dB -24.13 dB 2:33 18-All theme from the film Run for Your Wife
DR10 -10.67 dB -23.13 dB 2:29 19-El Paso
DR10 -12.20 dB -25.09 dB 2:46 20-Tears
DR11 -11.64 dB -24.33 dB 2:07 21- I Wish I Knew
DR10 -11.25 dB -24.48 dB 2:31 22-Ay Ay Ay
––––––––––––––––––––––––––––––––––––––––

Number of tracks: 22
Official DR value: DR11

Samplerate: 2822400 Hz / PCM Samplerate: 88200 Hz
Channels: 2
Bits per sample: 1
Bitrate: 5645 kbps
Codec: DST64


Thanks to KingCrim!
Uncompressed SACD ISO size > 2,68 GB
>