Duke Ellington & His Orchestra - Midnight In Paris (1962/2015) [Official Digital Download 24-bit/352,8kHz]

Posted By: HDV
Duke Ellington & His Orchestra - Midnight In Paris (1962/2015) [Official Digital Download 24-bit/352,8kHz]

Duke Ellington & His Orchestra - Midnight In Paris (1962/2015)
FLAC (tracks) 24-bit/352,8 kHz | Time - 42:17 minutes | 2,48 GB
or FLAC (tracks) 24-bit/96 kHz | Time - 42:17 minutes | 921 MB
Studio Master, Official Digital Download | Artwork: Digital booklet

"Midnight in Paris" is an album by American pianist, composer and bandleader Duke Ellington recorded in 1962 for the Columbia label. The album features performances of compositions inspired by or associated with Paris. Only three of the 13 numbers were written by Ellington or Strayhorn (including a remake of "Paris Blues" and "Guitar Amour") and the music sticks pretty much to melodic ballads like "I Wish You Love" and "Comme Ci, Comme Ca".

Tracklist:

01 - Under Paris Skies
02 - I Wish You Love
03 - Mademoiselle De Paris
04 - Comme Ci, Comme Ca
05 - Speak To Me Of Love
06 - A Midnight In Paris
07 - (All Of A Sudden) My Heart Sings
08 - Guitar Amour
09 - The Petite Waltz
10 - Paris Blues
11 - Javapachacha (Apache)
12 - No Regrets
13 - The River Seine

Produced by Teo Macero.
Recorded at Columbia Studio A, New York on January 30, 1962 (tracks 5, 8 & 10), January 31, 1962 (tracks 4, 9 & 11), February 27, 1962 (track 1), June 21, 1962 (tracks 3 & 6), and June 26, 1962 (tracks 2, 7, 12 & 13).
High Definition Tape Transfers. Transferred from a Columbia 4-track tape.

Musicians:
Duke Ellington – piano (tracks 1-3, 6, 7, 12 & 13)
Billy Strayhorn - piano (tracks 4, 5 & 8-11)
Ray Nance - cornet
Cat Anderson, Shorty Baker (tracks 1, 4, 5 & 8-11), Bill Berry (tracks 2, 5, 7, 8, & 11-13), Roy Burrowes (tracks 1-3, 6, 7, 12 & 13), Howard McGhee (tracks 4, 9 & 11) - trumpet
Lawrence Brown, Buster Cooper (tracks 1-3, 6, 7, 12 & 13), Lyle Cox (tracks 4, 5 & 8-11) - trombone
Chuck Connors - bass trombone
Jimmy Hamilton - clarinet, tenor saxophone
Johnny Hodges - alto saxophone
Russell Procope - alto saxophone, clarinet
Paul Gonsalves - tenor saxophone
Harry Carney - baritone saxophone, clarinet, bass clarinet
Aaron Bell - bass
Sam Woodyard - drums

Analyzed: Duke Ellington And His Orchestra / Midnight in Paris
––––––––––––––––––––––––––––––––––––––––

DR Peak RMS Duration Track
––––––––––––––––––––––––––––––––––––––––
DR11 -2.12 dB -16.64 dB 2:45 01-Under Paris Skies
DR11 -2.17 dB -16.88 dB 3:47 02-I Wish You Love
DR11 -2.11 dB -15.71 dB 3:19 03-Mademoiselle De Paris
DR13 -0.47 dB -18.53 dB 3:01 04-Comme Ci, Comme Ca
DR12 -3.66 dB -18.13 dB 2:02 05-Speak To Me Of Love
DR11 -2.71 dB -17.30 dB 3:34 06-A Midnight In Paris
DR9 -2.69 dB -15.30 dB 2:04 07-(All Of A Sudden) My Heart Sings
DR12 -2.26 dB -18.55 dB 4:55 08-Guitar Amour
DR12 -2.64 dB -17.35 dB 4:11 09-The Petite Waltz
DR12 -2.08 dB -16.94 dB 4:17 10-Paris Blues
DR11 -2.11 dB -16.91 dB 3:53 11-Javapachacha (Apache)
DR11 -4.49 dB -19.20 dB 2:12 12-No Regrets
DR11 -2.54 dB -18.08 dB 2:15 13-The River Seine
––––––––––––––––––––––––––––––––––––––––

Number of tracks: 13
Official DR value: DR11

Samplerate: 352800 Hz
Channels: 2
Bits per sample: 24
Bitrate: 7987 kbps
Codec: FLAC
================================================================================


Thanks to the Original customer!