Subcategories

Charles Mackerras, Scottish Chamber Orchestra - Mozart: Don Giovanni (2008)

Posted By: ArlegZ
Charles Mackerras, Scottish Chamber Orchestra - Mozart: Don Giovanni (2008)

Charles Mackerras, Scottish Chamber Orchestra - Mozart: Don Giovanni (2008)
EAC | FLAC | Image (Cue & Log) ~ 770 Mb | Total time: 183:10 | Scans included
Classical | Label: Telars | # 3CD-80726 | Recorded: 1995

This is the second fine Don Giovanni we have had within the past year. Like Gardiner (Archiv), Mackerras includes every note Mozart wrote for both the original Prague version and the Viennese revival. Moreover, it is easier than ever for listeners to ‘programme in’ their preferred version: all Prague die-hards have to do is to bypass Don Ottavio’s ‘Dalla sua pace’ in Act I – a beautiful aria, in all conscience, though it holds up the dramatic action at a crucial stage. By coaxing a modern orchestra into a real awareness of period style, Mackerras seems to have the best of both worlds: the playing has admirable liveliness and intensity, and there are none of the intonation problems that so often plague actual period instruments. Mackerras does use natural trumpets, and their rasping sound lends real bite, not least to the overture’s chilling opening chords. In his introductory essay Mackerras argues that Mozart’s Andantes in ‘cut-time’ (ie two beats to the bar) are often taken too slowly. Maybe so, but the death of the Commendatore – that moment of sudden stasis following the hectic activity of the opera’s beginning – is a passage that fails to make its full effect of horrified wonder here because the tempo is surely too quick. Mozart was not always consistent about these things: we need look no further than Leporello’s opening ‘Notte e giorno faticar’, which would sound impossibly laboured at its indicated four-to-the-bar. This is, however, a deeply rewarding performance, and one that conveys a real sense of the theatre. The cast is a strong one, with Bo Skovhus a fine Giovanni, Christine Brewer a commanding Donna Anna, and Nuccia Focile a delightful Zerlina.
–Misha Donat

Performer:
Don Giovanni - Bo Skovhus
Leporello - Alessandro Corbelli
Donna Anna - Christine Brewer
Donna Elvira - Felicity Lott
Don Ottavio - Jerry Hadley
Il Commendatore/Masetto - Umberto Chiummo
Zerlina - Nuccia Focile
Scottish Chamber Chorus
Scottish Chamber Orchestra
Conductor - Charles Mackerras

Tracklist:
CD1:
01. Overture
02. Atto I. № 1. Introduzione: Notte e giorno faticar (Leporello, Donna Anna, Don Giovanni, il Commendatore)
03. Recitativo: Leporello, ove sei? (Don Giovanni, Leporello)
04. Recitativo: Ah! del padre in periglio (Donna Anna, Don Ottavio)
05. № 2. Recitativo accompagnato: Ma qual mai s'offre, oh Dei (Donna Anna, Don Ottavio)
06. Duetto: Fuggi, crudele, fuggi! (Donna Anna, Don Ottavio)
07. Recitativo: Orsù, spicciati presto (Don Giovanni, Leporello)
08. № 3. Aria: Ah chi mi dice mai (Donna Elvira con Don Giovanni e Leporello)
09. Recitativo: Chi è là? – Stelle! che vedo (Donna Elvira, Don Giovanni, Leporello)
10. № 4. Aria: Madamina, il catalogo è questo (Leporello)
11. Recitativo: In questa forma (Donna Elvira)
12. № 5. Coro: Giovinette che fate all'amore (Zerlina, Masetto, Coro di contadine e contadini)
13. Recitativo: Manco male è partita (Don Giovanni, Leporello, Zerlina, Masetto)
14. № 6. Aria: Ho capito, signor sì (Masetto)
15. Recitativo: Alfin siam liberati (Don Giovanni, Zerlina)
16. № 7. Duettino: Là ci darem la mano (Don Giovanni, Zerlina)
17. Recitativo: Fermati, scellerato! (Donna Elvira, Zerlina, Don Giovanni)
18. № 8. Aria: Ah! fuggi il traditor (Donna Elvira)
19. Recitativo: Mi par ch'oggi il demonio si diverta (Don Giovanni, Don Ottavio, Donna Anna)
20. № 9. Quartetto: Non ti fidar, oh misera (Donna Elvira, Donna Anna, Don Ottavio, Don Giovanni)
21. Recitativo: Povera sventurata! (Don Giovanni)
22. № 10. Recitativo accompagnato: Don Ottavio, son morta! (Donna Anna, Don Ottavio)
23. Aria: Or sai chi l'onore (Donna Anna)
24. Recitativo: Come mai creder deggio (Don Ottavio)
25. № 10a. Aria: Dalla sua pace (Don Ottavio)
26. Recitativo: lo deggio ad ogni patto (Leporello, Don Giovanni)
27. № 11. Aria: Fin ch'han dal vino (Don Giovanni)
28. Recitativo: Masetto, senti un po'! (Zerlina, Masetto)
29. № 12. Aria: Batti, batti, o bel Masetto (Zerlina)
CD2:
01. Recitativo: Guarda un po' come seppe (Masetto, Don Giovanni, Zerlina)
02. № 13. Finale: Presto presto pria ch'ei venga (Masetto, Zerlina)
03. Tra quest abori celata (Zerlina, Don Giovanni, Masetto)
04. Bisogna aver coraggio (Donna Elvira, Don Ottavio, Donna Anna, Leporello, Don Giovanni)
05. Protegga il giusto cielo (Donna Anna, Donna Elvira, Don Ottavio)
06. Risposate, vezzose ragazze (Don Giovanni, Leporello, Masetto, Zerlina, Donna Anna, Donna Elvira, Don Ottavio)
07. Venite pur avanti (Leporello, Don Giovanni, Donna Elvira, Don Ottavio)
08. Ecco il birbo (Don Giovanni, Leporello, Don Ottavio, Donna Elvira, Donna Anna, Zerlina, Masetto)
09. Trema, trema, o scellerato! (Donna Anna, Donna Elvira, Zerlina, Don Ottavio, Masetto, Don Giovanni, Leporello)
10. Atto II. № 14. Duetto: Eh, via, buffone, non me seccar (Don Giovanni, Leporello)
11. Recitativo: Leporello! … Signore? (Don Giovanni, Leporello)
12. № 15. Terzetto: Ah taci ingiusto core (Donna Elvira, Leporello, Don Giovanni)
13. Recitativo: Amico, che ti par? (Don Giovanni, Leporello)
14. Recitativo: Eccomi a voi! (Donna Elvira, Don Giovanni, Leporello)
15. № 16. Canzonetta: Deh, vieni alla finestra (Don Giovanni)
16. Recitativo: V'e gente alla finestra (Don Giovanni)
17. № 17. Aria: Meta di voi qua vadano (Masetto, Don Giovanni)
18. Recitativo: Zitto! lascia ch'io senta: ottimamente (Don Giovanni, Masetto)
19. Recitativo: Ahi ahi! la testa mia! (Masetto, Zerlina)
20. № 18. Aria: Vedrai, carino (Zerlina)
21. Recitativo: Di molte faci il lume (Leporello, Donna Elvira)
22. № 19. Sestetto: Sola, sola in buio loco (Donna Elvira, Leporello, Don Ottavio, Donna Anna, Zerlina, Masetto)
Prague version
23. Recitativo: Dunque quello sei tu (Zerlina, Don Ottavio, Donna Elvira, Masetto)
24. № 20. Aria: Ah, pieta, signori miei! (Leporello)
25. Recitativo: Ferma, perfido, ferma! (Donna Elvira, Masetto, Zerlina, Don Ottavio)
26. № 21. Aria: Il mio tesoro intanto (Don Ottavio) [00:04:20]
27. Recitativo: Ah, ah, ah questa bona (Don Giovanni, Leporello, Il Commendatore)
28. № 22. Duetto: O statua gentilissima (Leporello, Don Giovanni, Il Commendatore)
CD3:
Vienna version
01. Recitativo: Dunque quello sei tu (Zerlina, Donna Elvira, Don Ottavio, Masetto, Leporello)
02. Recitativo: Ferma, perfido, ferma (Donna Elvira, Masetto, Zerlina, Don Ottavio)
03. Recitativo: Restate qua! (Zerlina, Leporello)
04. № 21a. Duetto: Per queste tue manine (Leporello, Zerlina)
05. Recitativo: Amico, per pieta (Leporello)
06. Recitativo: Andiam, andiam, signora (Zerlina, Donna Elvira, Masetto)
07. № 21b. Recitativo accompagnato: In quali eccessi, o Numi (Donna Elvira)
08. Aria: Mi tradi quell'alma ingrata (Donna Elvira)
09. Recitativo: Ah, ah, ah, ah questa e buona (Don Giovanni, Leporello, Il Commendatore)
10. № 22. Duetto: O statua gentilissima (Leporello, Don Giovanni, Il Commendatore)
11. Recitativo: Calmatevi, idol mio! (Don Ottavio, Donna Anna)
12. № 23. Recitativo accompagnato: Crudele! Ah no, mio bene (Donna Anna)
13. Rondo: Non mi dir, bell'idol mio (Donna Anna)
14. Recitativo: Ah, si segua il suo passo (Don Ottavio)
15. № 24. Finale: Gia la mensa e preparata (Don Giovanni, Leporello)
16. L'umtima prova dell'amor mio (Donna Elvira, Don Giovanni, Leporello)
17. Che grido e questo mai! (Don Giovanni, Leporello)
18. Don Giovanni, a cenar teco (Il Commendatore, Don Giovanni, Leporello)
19. Da qual tremore insolito (Don Giovanni, Coro, Leporello)
20. Ah! dov'e il perfido (Donna Anna, Donna Elvira, Zerlina, Don Ottavio, Masetto, Leporello)
21. Or che tutti, o mio tesoro (Don Ottavio, Donna Anna, Donna Elvira, Zerlina, Masetto, Leporello)
22. Resti dunque quel birbon (Zerlina, Masetto, Leporello)
23. Questo e il fin (Donna Anna, Donna Elvira, Zerlina, Don Ottavio, Masetto, Leporello)
Appendix
24. Overture (Concert version)


Exact Audio Copy V1.0 beta 1 from 15. November 2010

EAC extraction logfile from 11. January 2012, 17:32

Charles Mackerras, Bo Skovhus, A. Corbelli, Ch.Brewer, J.Hadley, F.Lott / Mozart - Don Giovanni CD1

Used drive : PIONEER DVD-RW DVR-218L Adapter: 1 ID: 0

Read mode : Secure
Utilize accurate stream : Yes
Defeat audio cache : Yes
Make use of C2 pointers : No

Read offset correction : 6
Overread into Lead-In and Lead-Out : No
Fill up missing offset samples with silence : Yes
Delete leading and trailing silent blocks : No
Null samples used in CRC calculations : Yes
Used interface : Native Win32 interface for Win NT & 2000

Used output format : User Defined Encoder
Selected bitrate : 192 kBit/s
Quality : High
Add ID3 tag : No
Command line compressor : C:\Program Files\Exact Audio Copy\Flac\flac.exe
Additional command line options : -T "DATE=%y" -T "GENRE=%m" -8 -V %s


TOC of the extracted CD

Track | Start | Length | Start sector | End sector
––––––––––––––––––––––––––––-
1 | 0:00.00 | 5:27.51 | 0 | 24575
2 | 5:27.51 | 4:57.09 | 24576 | 46859
3 | 10:24.60 | 0:28.02 | 46860 | 48961
4 | 10:52.62 | 0:14.05 | 48962 | 50016
5 | 11:06.67 | 2:31.21 | 50017 | 61362
6 | 13:38.13 | 3:38.13 | 61363 | 77725
7 | 17:16.26 | 1:29.71 | 77726 | 84471
8 | 18:46.22 | 3:21.07 | 84472 | 99553
9 | 22:07.29 | 2:50.72 | 99554 | 112375
10 | 24:58.26 | 5:29.39 | 112376 | 137089
11 | 30:27.65 | 0:32.01 | 137090 | 139490
12 | 30:59.66 | 1:23.09 | 139491 | 145724
13 | 32:23.00 | 2:17.65 | 145725 | 156064
14 | 34:40.65 | 1:30.32 | 156065 | 162846
15 | 36:11.22 | 2:04.06 | 162847 | 172152
16 | 38:15.28 | 2:57.05 | 172153 | 185432
17 | 41:12.33 | 0:44.53 | 185433 | 188785
18 | 41:57.11 | 1:02.67 | 188786 | 193502
19 | 43:00.03 | 1:01.19 | 193503 | 198096
20 | 44:01.22 | 3:29.11 | 198097 | 213782
21 | 47:30.33 | 0:23.10 | 213783 | 215517
22 | 47:53.43 | 3:06.56 | 215518 | 229523
23 | 51:00.24 | 2:41.65 | 229524 | 241663
24 | 53:42.14 | 0:27.36 | 241664 | 243724
25 | 54:09.50 | 4:01.23 | 243725 | 261822
26 | 58:10.73 | 1:39.58 | 261823 | 269305
27 | 59:50.56 | 1:18.36 | 269306 | 275191
28 | 61:09.17 | 1:22.05 | 275192 | 281346
29 | 62:31.22 | 3:33.14 | 281347 | 297335


Range status and errors

Selected range

Filename C:\Mozart - Don Giovanni CD1.wav

Peak level 100.0 %
Extraction speed 0.0 X
Range quality 100.0 %
Test CRC C6553117
Copy CRC C6553117
Copy OK

No errors occurred


AccurateRip summary

Track 1 accurately ripped (confidence 4) [DDF43DBF]
Track 2 accurately ripped (confidence 3) [49E7DCD9]
Track 3 accurately ripped (confidence 4) [30FCED0B]
Track 4 accurately ripped (confidence 4) [4DDBB1EE]
Track 5 accurately ripped (confidence 4) [CE79C5FC]
Track 6 accurately ripped (confidence 4) [74ED2117]
Track 7 accurately ripped (confidence 4) [B27A25AD]
Track 8 accurately ripped (confidence 4) [AB6A01BF]
Track 9 accurately ripped (confidence 4) [7FF11CE8]
Track 10 accurately ripped (confidence 4) [64D8119B]
Track 11 accurately ripped (confidence 4) [74246624]
Track 12 accurately ripped (confidence 4) [894C52F9]
Track 13 accurately ripped (confidence 4) [DCBA70A8]
Track 14 accurately ripped (confidence 4) [FB53ADA8]
Track 15 accurately ripped (confidence 4) [09DAB13C]
Track 16 accurately ripped (confidence 4) [408DFD12]
Track 17 accurately ripped (confidence 4) [C59AC6DB]
Track 18 accurately ripped (confidence 4) [45E0D5C4]
Track 19 accurately ripped (confidence 4) [640E0AC3]
Track 20 accurately ripped (confidence 4) [526FE4F6]
Track 21 accurately ripped (confidence 4) [84D8735A]
Track 22 accurately ripped (confidence 4) [8D504223]
Track 23 accurately ripped (confidence 4) [82877EEC]
Track 24 accurately ripped (confidence 4) [130C1DEC]
Track 25 accurately ripped (confidence 4) [266E0854]
Track 26 accurately ripped (confidence 4) [98E8FB2C]
Track 27 accurately ripped (confidence 4) [A7A3172A]
Track 28 accurately ripped (confidence 4) [B4C1B294]
Track 29 accurately ripped (confidence 4) [553B80BC]

All tracks accurately ripped

End of status report

==== Log checksum 8B7C8D02867CD31553586D55EACC467C8CAD0A396BD87116965177A0A219E4FF ====


Exact Audio Copy V1.0 beta 1 from 15. November 2010

EAC extraction logfile from 11. January 2012, 18:56

Charles Mackerras, Bo Skovhus, A. Corbelli, Ch.Brewer, J.Hadley, F.Lott / Mozart - Don Giovanni CD2

Used drive : PIONEER DVD-RW DVR-218L Adapter: 1 ID: 0

Read mode : Secure
Utilize accurate stream : Yes
Defeat audio cache : Yes
Make use of C2 pointers : No

Read offset correction : 6
Overread into Lead-In and Lead-Out : No
Fill up missing offset samples with silence : Yes
Delete leading and trailing silent blocks : No
Null samples used in CRC calculations : Yes
Used interface : Native Win32 interface for Win NT & 2000

Used output format : User Defined Encoder
Selected bitrate : 192 kBit/s
Quality : High
Add ID3 tag : No
Command line compressor : C:\Program Files\Exact Audio Copy\Flac\flac.exe
Additional command line options : -T "DATE=%y" -T "GENRE=%m" -8 -V %s


TOC of the extracted CD

Track | Start | Length | Start sector | End sector
––––––––––––––––––––––––––––-
1 | 0:00.00 | 0:42.57 | 0 | 3206
2 | 0:42.57 | 1:46.08 | 3207 | 11164
3 | 2:28.65 | 2:19.04 | 11165 | 21593
4 | 4:47.69 | 1:54.08 | 21594 | 30151
5 | 6:42.02 | 2:07.73 | 30152 | 39749
6 | 8:50.00 | 1:13.20 | 39750 | 45244
7 | 10:03.20 | 3:44.30 | 45245 | 62074
8 | 13:47.50 | 1:22.67 | 62075 | 68291
9 | 15:10.42 | 2:13.72 | 68292 | 78338
10 | 17:24.39 | 1:00.73 | 78339 | 82911
11 | 18:25.37 | 2:02.05 | 82912 | 92066
12 | 20:27.42 | 4:24.20 | 92067 | 111886
13 | 24:51.62 | 0:34.07 | 111887 | 114443
14 | 25:25.69 | 1:40.07 | 114444 | 121950
15 | 27:06.01 | 1:49.58 | 121951 | 130183
16 | 28:55.59 | 1:12.33 | 130184 | 135616
17 | 30:08.17 | 2:52.72 | 135617 | 148588
18 | 33:01.14 | 0:45.68 | 148589 | 152031
19 | 33:47.07 | 1:13.17 | 152032 | 157523
20 | 35:00.24 | 3:26.65 | 157524 | 173038
21 | 38:27.14 | 0:34.73 | 173039 | 175661
22 | 39:02.12 | 7:08.60 | 175662 | 207821
23 | 46:10.72 | 0:23.27 | 207822 | 209573
24 | 46:34.24 | 1:41.53 | 209574 | 217201
25 | 48:16.02 | 0:40.62 | 217202 | 220263
26 | 48:56.64 | 4:20.00 | 220264 | 239763
27 | 53:16.64 | 4:21.08 | 239764 | 259346
28 | 57:37.72 | 3:20.51 | 259347 | 274397


Range status and errors

Selected range

Filename C:\Mozart - Don Giovanni CD2.wav

Peak level 100.0 %
Extraction speed 0.0 X
Range quality 100.0 %
Test CRC 8D7243B3
Copy CRC 8D7243B3
Copy OK

No errors occurred


AccurateRip summary

Track 1 accurately ripped (confidence 4) [B5530D1A]
Track 2 accurately ripped (confidence 4) [CE4DB2FC]
Track 3 accurately ripped (confidence 4) [0B6A3570]
Track 4 accurately ripped (confidence 4) [2A412F6D]
Track 5 accurately ripped (confidence 4) [20B0D192]
Track 6 accurately ripped (confidence 3) [2F349193]
Track 7 accurately ripped (confidence 4) [4A0A3F08]
Track 8 accurately ripped (confidence 4) [E0E65EDF]
Track 9 accurately ripped (confidence 4) [D16DEBC9]
Track 10 accurately ripped (confidence 4) [6C510FF4]
Track 11 accurately ripped (confidence 4) [5D8BF427]
Track 12 accurately ripped (confidence 4) [B39332BE]
Track 13 accurately ripped (confidence 4) [6CDBCDDD]
Track 14 accurately ripped (confidence 4) [AD678257]
Track 15 accurately ripped (confidence 4) [FD28E4F0]
Track 16 accurately ripped (confidence 4) [3E7DD881]
Track 17 accurately ripped (confidence 4) [23FAD642]
Track 18 accurately ripped (confidence 4) [E5B534C7]
Track 19 accurately ripped (confidence 4) [12F03877]
Track 20 accurately ripped (confidence 4) [72F8CCDC]
Track 21 accurately ripped (confidence 4) [66F385B3]
Track 22 accurately ripped (confidence 4) [81517EDE]
Track 23 accurately ripped (confidence 4) [AD00EDA3]
Track 24 accurately ripped (confidence 4) [C94833E8]
Track 25 accurately ripped (confidence 4) [FA1F395B]
Track 26 accurately ripped (confidence 3) [38E5C5E1]
Track 27 accurately ripped (confidence 4) [60F9A9A8]
Track 28 accurately ripped (confidence 4) [9C665833]

All tracks accurately ripped

End of status report

==== Log checksum BE8A3A4E181B502C07B6F105B22C17DF491C8B642354C1D1E07C6CA5C7D74950 ====


Exact Audio Copy V1.0 beta 1 from 15. November 2010

EAC extraction logfile from 11. January 2012, 20:27

Charles Mackerras, Bo Skovhus, A. Corbelli, Ch.Brewer, J.Hadley, F.Lott / Mozart - Don Giovanni CD3

Used drive : PIONEER DVD-RW DVR-218L Adapter: 1 ID: 0

Read mode : Secure
Utilize accurate stream : Yes
Defeat audio cache : Yes
Make use of C2 pointers : No

Read offset correction : 6
Overread into Lead-In and Lead-Out : No
Fill up missing offset samples with silence : Yes
Delete leading and trailing silent blocks : No
Null samples used in CRC calculations : Yes
Used interface : Native Win32 interface for Win NT & 2000

Used output format : User Defined Encoder
Selected bitrate : 192 kBit/s
Quality : High
Add ID3 tag : No
Command line compressor : C:\Program Files\Exact Audio Copy\Flac\flac.exe
Additional command line options : -T "DATE=%y" -T "GENRE=%m" -8 -V %s


TOC of the extracted CD

Track | Start | Length | Start sector | End sector
––––––––––––––––––––––––––––-
1 | 0:00.00 | 1:12.42 | 0 | 5441
2 | 1:12.42 | 0:41.00 | 5442 | 8516
3 | 1:53.42 | 1:34.70 | 8517 | 15636
4 | 3:28.37 | 3:18.60 | 15637 | 30546
5 | 6:47.22 | 1:03.00 | 30547 | 35271
6 | 7:50.22 | 1:13.55 | 35272 | 40801
7 | 9:04.02 | 1:59.70 | 40802 | 49796
8 | 11:03.72 | 3:43.33 | 49797 | 66554
9 | 14:47.30 | 4:42.62 | 66555 | 87766
10 | 19:30.17 | 3:21.08 | 87767 | 102849
11 | 22:51.25 | 0:49.02 | 102850 | 106526
12 | 23:40.27 | 1:28.40 | 106527 | 113166
13 | 25:08.67 | 5:00.08 | 113167 | 135674
14 | 30:09.00 | 0:19.57 | 135675 | 137156
15 | 30:28.57 | 4:44.41 | 137157 | 158497
16 | 35:13.23 | 2:06.11 | 158498 | 167958
17 | 37:19.34 | 1:13.08 | 167959 | 173441
18 | 38:32.42 | 4:38.30 | 173442 | 194321
19 | 43:10.72 | 1:13.05 | 194322 | 199801
20 | 44:24.02 | 1:34.20 | 199802 | 206871
21 | 45:58.22 | 2:16.00 | 206872 | 217071
22 | 48:14.22 | 0:33.35 | 217072 | 219581
23 | 48:47.57 | 1:47.03 | 219582 | 227609
24 | 50:34.60 | 5:32.51 | 227610 | 252560


Range status and errors

Selected range

Filename C:\Mozart - Don Giovanni CD3.wav

Peak level 100.0 %
Extraction speed 0.1 X
Range quality 99.9 %
Test CRC E7D552EC
Copy CRC E7D552EC
Copy OK

No errors occurred


AccurateRip summary

Track 1 accurately ripped (confidence 4) [60900F88]
Track 2 accurately ripped (confidence 4) [10C96463]
Track 3 accurately ripped (confidence 4) [0A3BAFCE]
Track 4 accurately ripped (confidence 4) [2ABF18F6]
Track 5 accurately ripped (confidence 4) [17AF4ECE]
Track 6 accurately ripped (confidence 4) [E41EF838]
Track 7 accurately ripped (confidence 4) [FB6E74CE]
Track 8 accurately ripped (confidence 4) [EC398640]
Track 9 accurately ripped (confidence 4) [38FDE227]
Track 10 accurately ripped (confidence 4) [FB3E3B84]
Track 11 accurately ripped (confidence 4) [840CD1EB]
Track 12 accurately ripped (confidence 4) [0FD8B3B6]
Track 13 accurately ripped (confidence 4) [FF342945]
Track 14 accurately ripped (confidence 4) [EC6DBDB9]
Track 15 accurately ripped (confidence 4) [A8F4A587]
Track 16 accurately ripped (confidence 4) [84B0030C]
Track 17 accurately ripped (confidence 4) [E7909A89]
Track 18 accurately ripped (confidence 4) [B84939F2]
Track 19 accurately ripped (confidence 4) [5FB70739]
Track 20 accurately ripped (confidence 4) [FA414157]
Track 21 accurately ripped (confidence 4) [F01BF6A9]
Track 22 accurately ripped (confidence 4) [764CFDCF]
Track 23 accurately ripped (confidence 4) [E9115640]
Track 24 accurately ripped (confidence 4) [419A5B86]

All tracks accurately ripped

End of status report

==== Log checksum 2A4B20588FF2FF44BE10B4C63EE778F0B53374AE45DBA075BA2AEABC54D18128 ====

Charles Mackerras, Scottish Chamber Orchestra - Mozart: Don Giovanni (2008)