Subcategories

Kardinal Sin - Victorious (2017) [Reissue 2018]

Posted By: Andi_Deris
Kardinal Sin - Victorious (2017) [Reissue 2018]

Kardinal Sin - Victorious (2017) [Reissue 2018]
EAC Rip | FLAC: Image+Cue+Log | MP3 CBR 320 kbps | Scans
421 Mb | 131 Mb | 46 Mb | Time: 56:14
Massacre Records | MAS CD1021
Melodic Power Metal, Heavy Metal

The band started as an Accept tribute band back in 2003. Pretty soon they decided to write their own songs and formed the band Rough Diamond. In 2014 the members decided to reform the band and start up with a brand new name since they had changed the lineup and were working on a new album with a different sound. Kardinal Sin was born and got their first big event at Väsby Rock Festival where they played with bands like W.A.S.P., Michael Schenker Group, Eclipse, Magnum, Edens Curse etc. After that they have also performed with bands like Bloodbound, Death Dealer, Tad Morose, Dynazty etc.

Finally KARDINAL SIN release their debut album "Victorious"! The whole album surrounds a dark atmosphere and is rather a mixture of Power Metal and classical Heavy Metal with strong melodies and even a touch of "Phantom of the Opera". It was released in Sweden by Gain/Rambo Music in October 2017 and will be re-released worlwide by Massacre Records during the spring of 2018.

Kardinal Sin - Victorious (2017) [Reissue 2018]




Track Listing

01. Patria (Fatherland) (03:28)
02. Walls Of Stone (04:47)
03. Mastermind (05:13)
04. Victorious (04:25)
05. Bonaparte (04:21)
06. S.I.N (05:52)
07. Revenge Of The Fallen (03:50)
08. Secrets Of The Pantomime (04:40)
09. Raven Quote (04:31)
10. Attack (04:08)
11. Bells Of Notre Dame (Revisited) (06:45)
12. For The Heroes (Bonus Track) (04:16)

Produced by Kardinal Sin

The Band

• Danne Wikerman - Vocals
• Hannu Viita - Bass
• Jocke Vähätalo - Guitar
• Thomas "Geson" Gustafsson - Keyboards
• Sophie Conte - Guitar
• Micke Asp - Drums

Exact Audio Copy V1.3 from 2. September 2016

EAC extraction logfile from 28. May 2018, 19:31

Kardinal Sin / Victorious (2018)

Used drive : ATAPI iHAS122 W Adapter: 2 ID: 0

Read mode : Secure
Utilize accurate stream : Yes
Defeat audio cache : Yes
Make use of C2 pointers : No

Read offset correction : 48
Overread into Lead-In and Lead-Out : No
Fill up missing offset samples with silence : Yes
Delete leading and trailing silent blocks : No
Null samples used in CRC calculations : Yes
Used interface : Installed external ASPI interface

Used output format : User Defined Encoder
Selected bitrate : 1024 kBit/s
Quality : High
Add ID3 tag : No
Command line compressor : C:\Program Files\FLAC\flac.exe
Additional command line options : -V -8 -T "Date=%year%" -T "Genre=%genre%" -T"COMMENT=Ripped by Ilijan" -8 -V %source%


TOC of the extracted CD

Track | Start | Length | Start sector | End sector
––––––––––––––––––––––––––––-
1 | 0:00.00 | 3:28.01 | 0 | 15600
2 | 3:28.01 | 4:46.43 | 15601 | 37093
3 | 8:14.44 | 5:12.32 | 37094 | 60525
4 | 13:27.01 | 4:25.21 | 60526 | 80421
5 | 17:52.22 | 4:20.56 | 80422 | 99977
6 | 22:13.03 | 5:51.54 | 99978 | 126356
7 | 28:04.57 | 3:50.04 | 126357 | 143610
8 | 31:54.61 | 4:39.32 | 143611 | 164567
9 | 36:34.18 | 4:30.37 | 164568 | 184854
10 | 41:04.55 | 4:07.73 | 184855 | 203452
11 | 45:12.53 | 6:44.50 | 203453 | 233802
12 | 51:57.28 | 4:16.00 | 233803 | 253002


Range status and errors

Selected range

Filename D:\Kardinal Sin - Victorious (2018).wav

Peak level 98.8 %
Extraction speed 4.1 X
Range quality 100.0 %
Test CRC A5A891B4
Copy CRC A5A891B4
Copy OK

No errors occurred


AccurateRip summary

Track 1 accurately ripped (confidence 1) [DD5CE71A] (AR v2)
Track 2 accurately ripped (confidence 1) [07044D53] (AR v2)
Track 3 accurately ripped (confidence 1) [0013FEC1] (AR v2)
Track 4 accurately ripped (confidence 1) [69033720] (AR v2)
Track 5 accurately ripped (confidence 1) [E778CA3A] (AR v2)
Track 6 accurately ripped (confidence 1) [E5E3E15B] (AR v2)
Track 7 accurately ripped (confidence 1) [61F958B1] (AR v2)
Track 8 accurately ripped (confidence 1) [C8500772] (AR v2)
Track 9 accurately ripped (confidence 1) [F6B074ED] (AR v2)
Track 10 accurately ripped (confidence 1) [4A3CA50F] (AR v2)
Track 11 accurately ripped (confidence 1) [243E9C21] (AR v2)
Track 12 accurately ripped (confidence 1) [E84676C1] (AR v2)

All tracks accurately ripped

End of status report

–– CUETools DB Plugin V2.1.6

[CTDB TOCID: RWC.Rnzy4pY6gPPAGZQY1aCCWSQ-] found
Submit result: RWC.Rnzy4pY6gPPAGZQY1aCCWSQ- has been confirmed
Track | CTDB Status
1 | (1/1) Accurately ripped
2 | (1/1) Accurately ripped
3 | (1/1) Accurately ripped
4 | (1/1) Accurately ripped
5 | (1/1) Accurately ripped
6 | (1/1) Accurately ripped
7 | (1/1) Accurately ripped
8 | (1/1) Accurately ripped
9 | (1/1) Accurately ripped
10 | (1/1) Accurately ripped
11 | (1/1) Accurately ripped
12 | (1/1) Accurately ripped


==== Log checksum EE9C35A799E322239604A4D2AD80FBCD9191EEBF28D7ADE032190D644D4B5ADF ====


Many thanks to the original uploader: Ilijan



Password: pass