Subcategories

Lonnie Brooks, Long John Hunter, Phillip Walker - Lone Star Shootout (1999)

Posted By: Designol
Lonnie Brooks, Long John Hunter, Phillip Walker - Lone Star Shootout (1999)

Lonnie Brooks, Long John Hunter, Phillip Walker - Lone Star Shootout (1999)
EAC | FLAC | Tracks (Cue&Log) ~ 412 Mb | Mp3 (CBR320) ~ 156 Mb | Scans included
Modern Electric Chicago Blues | Label: Alligator | # ALCD 4866 | 01:03:40

Louisiana-born and Texas-toughened, Brooks (66 at the time of this recording), Hunter (68), and Walker (62) show what blues peers can do in what seem to be peaking years. There are three numbers where all three go full-tilt; the rest of the material varies in personnel, group, and solo emphasis. The distinctive, gutsy voice of Brooks, Walker's loping guitar lines with his slightly rough, seasoned voice, and the riveting presence of Walker on all counts, musically and vocally, are showcased to consistently satisfying levels. Of the 15 cuts, there are a handful of rockers and boogies, a few pure soul tunes and ballads, a jump blues, a Cajun calypso, and some straight blues – something for everyone. The hard-swinging "Street Walking Woman" and the slower shuffle "Feel Good Doin' Bad" are great musically, if lacking in message. Walker gets a back-to-back showcase on "I Can't Stand It No More/I Met the Blues in Person," and he tears it up. Brooks pleads and shouts on "This Should Go on Forever," while Hunter's highlights are the cautious "Alligators Around My Door" and the B.B. King cop on "Quit My Baby." Score some plus points for Kaz Kazanoff's sax and harp playing, and the horn charts are mighty fine throughout. Speaking of unsung heroes and heroines, credit pianist Marcia Ball on three cuts, Riley Osbourn playing keys on the others, and Ervin Charles, who does yeoman-like vocal and guitar work and gets two showcase cuts on his own, the best being the Muddy Waters closer "Two Trains Running." This is a historic joining of three blues legends, with so much talent you have to give huge props. Also, buy this simply for Bruce Iglauer's info-laden song notes, alone worth the price of the CD.

Review by Michael G. Nastos, Allmusic.com

Sometimes guitar showdowns work, and sometimes they don't. Lone Star Shootout definitely does, as three veteran Gulf Coast bluesmen band together for 15 killer tracks, with a little help from their friends. Lonnie Brooks, Phillip Walker, and Long John Hunter play with all the confidence one would expect of musicians who honed their skills in venues that make that country bar from The Blues Brothers look tame. Shootout is an appealing mix of Texas, Chicago (Brooks in particular has spent a lot of time there), and Cajun country (check out "Bon Ton Roulet," and recall that both Brooks and Walker did a stint with zydeco master Clifton Chenier), with nice touches of tenderness ("This Should Go On Forever") and humor ("It's Mighty Crazy"). Overall, a good time is had by all.

Genevieve Williams, Amazon.com Editorial Review

Lonnie Brooks, Long John Hunter, Phillip Walker - Lone Star Shootout (1999)


Tracklist:

01. Roll, Roll, Roll (3:22)
02. Boogie Rambler (3:09)
03. A Little More Time (4:21)
04. Bon Ton Roulet (3:54)
05. Feel Good Doin' Bad (4:15)
06. Alligators Around My Door (5:18)
07. Street Walking Woman (4:22)
08. This Should Go On Forever (3:40)
09. You're Playing Hooky (3:21)
10. Born In Louisiana (5:08)
11. Quit My Baby (4:11)
12. I Can't Stand It No More (3:54)
13. I Met the Blues In Person (5:01)
14. It's Mighty Crazy (3:46)
15. Two Trains Running (5:57)


Exact Audio Copy V1.0 beta 4 from 7. December 2014

EAC extraction logfile from 14. March 2015, 20:24

Brooks, Hunter & Walker / Lone Star Shootout

Used drive : ASUS DRW-24B1ST i Adapter: 1 ID: 0

Read mode : Secure
Utilize accurate stream : Yes
Defeat audio cache : Yes
Make use of C2 pointers : No

Read offset correction : 6
Overread into Lead-In and Lead-Out : No
Fill up missing offset samples with silence : Yes
Delete leading and trailing silent blocks : No
Null samples used in CRC calculations : Yes
Used interface : Native Win32 interface for Win NT & 2000
Gap handling : Appended to previous track

Used output format : User Defined Encoder
Selected bitrate : 1024 kBit/s
Quality : High
Add ID3 tag : No
Command line compressor : C:\Program Files (x86)\Exact Audio Copy\flac.exe
Additional command line options : -8 -V -T "artist=%artist%" -T "title=%title%" -T "album=%albumtitle%" -T "date=%year%" -T "tracknumber=%tracknr%" -T "genre=%genre%" %source%


TOC of the extracted CD

Track | Start | Length | Start sector | End sector
––––––––––––––––––––––––––––-
1 | 0:00.00 | 3:22.34 | 0 | 15183
2 | 3:22.34 | 3:09.03 | 15184 | 29361
3 | 6:31.37 | 4:21.18 | 29362 | 48954
4 | 10:52.55 | 3:53.42 | 48955 | 66471
5 | 14:46.22 | 4:14.58 | 66472 | 85579
6 | 19:01.05 | 5:18.00 | 85580 | 109429
7 | 24:19.05 | 4:22.32 | 109430 | 129111
8 | 28:41.37 | 3:39.63 | 129112 | 145599
9 | 32:21.25 | 3:21.20 | 145600 | 160694
10 | 35:42.45 | 5:08.00 | 160695 | 183794
11 | 40:50.45 | 4:10.70 | 183795 | 202614
12 | 45:01.40 | 3:54.27 | 202615 | 220191
13 | 48:55.67 | 5:01.25 | 220192 | 242791
14 | 53:57.17 | 3:46.17 | 242792 | 259758
15 | 57:43.34 | 5:56.38 | 259759 | 286496


Track 1

Filename D:\f\Brooks, Hunter & Walker - Lone Star Shootout (1999) [FLAC]\01 - Roll, Roll, Roll.wav

Pre-gap length 0:00:02.00

Peak level 100.0 %
Extraction speed 5.0 X
Track quality 100.0 %
Test CRC 7E25561D
Copy CRC 7E25561D
Accurately ripped (confidence 4) [3C93C118] (AR v2)
Copy OK

Track 2

Filename D:\f\Brooks, Hunter & Walker - Lone Star Shootout (1999) [FLAC]\02 - Boogie Rambler.wav

Peak level 77.3 %
Extraction speed 5.4 X
Track quality 100.0 %
Test CRC 0687E879
Copy CRC 0687E879
Accurately ripped (confidence 4) [CC22202C] (AR v2)
Copy OK

Track 3

Filename D:\f\Brooks, Hunter & Walker - Lone Star Shootout (1999) [FLAC]\03 - A Little More Time.wav

Peak level 100.0 %
Extraction speed 5.3 X
Track quality 99.9 %
Test CRC 55E8ABF0
Copy CRC 55E8ABF0
Accurately ripped (confidence 4) [6EE9CEAB] (AR v2)
Copy OK

Track 4

Filename D:\f\Brooks, Hunter & Walker - Lone Star Shootout (1999) [FLAC]\04 - Bon Ton Roulet.wav

Peak level 100.0 %
Extraction speed 6.6 X
Track quality 100.0 %
Test CRC 3116855A
Copy CRC 3116855A
Accurately ripped (confidence 4) [67333732] (AR v2)
Copy OK

Track 5

Filename D:\f\Brooks, Hunter & Walker - Lone Star Shootout (1999) [FLAC]\05 - Feel Good Doin' Bad.wav

Peak level 100.0 %
Extraction speed 7.1 X
Track quality 100.0 %
Test CRC 2F324664
Copy CRC 2F324664
Accurately ripped (confidence 4) [ABA54B3E] (AR v2)
Copy OK

Track 6

Filename D:\f\Brooks, Hunter & Walker - Lone Star Shootout (1999) [FLAC]\06 - Alligators Around My Door.wav

Peak level 86.9 %
Extraction speed 7.8 X
Track quality 100.0 %
Test CRC 1B70B45E
Copy CRC 1B70B45E
Accurately ripped (confidence 4) [BCD7132E] (AR v2)
Copy OK

Track 7

Filename D:\f\Brooks, Hunter & Walker - Lone Star Shootout (1999) [FLAC]\07 - Street Walking Woman.wav

Peak level 94.5 %
Extraction speed 8.0 X
Track quality 100.0 %
Test CRC 0147D892
Copy CRC 0147D892
Accurately ripped (confidence 4) [6C10547D] (AR v2)
Copy OK

Track 8

Filename D:\f\Brooks, Hunter & Walker - Lone Star Shootout (1999) [FLAC]\08 - This Should Go On Forever.wav

Peak level 100.0 %
Extraction speed 8.2 X
Track quality 100.0 %
Test CRC 0435B175
Copy CRC 0435B175
Accurately ripped (confidence 4) [E5683522] (AR v2)
Copy OK

Track 9

Filename D:\f\Brooks, Hunter & Walker - Lone Star Shootout (1999) [FLAC]\09 - You're Playing Hooky.wav

Peak level 98.1 %
Extraction speed 8.5 X
Track quality 100.0 %
Test CRC 607197CB
Copy CRC 607197CB
Accurately ripped (confidence 4) [277F6DB3] (AR v2)
Copy OK

Track 10

Filename D:\f\Brooks, Hunter & Walker - Lone Star Shootout (1999) [FLAC]\10 - Born In Louisiana.wav

Peak level 93.8 %
Extraction speed 9.3 X
Track quality 100.0 %
Test CRC 28470648
Copy CRC 28470648
Accurately ripped (confidence 4) [37A4C6C9] (AR v2)
Copy OK

Track 11

Filename D:\f\Brooks, Hunter & Walker - Lone Star Shootout (1999) [FLAC]\11 - Quit My Baby.wav

Peak level 84.2 %
Extraction speed 9.5 X
Track quality 100.0 %
Test CRC 9B695FAC
Copy CRC 9B695FAC
Accurately ripped (confidence 4) [C60BEEA1] (AR v2)
Copy OK

Track 12

Filename D:\f\Brooks, Hunter & Walker - Lone Star Shootout (1999) [FLAC]\12 - I Can't Stand It No More.wav

Peak level 100.0 %
Extraction speed 8.1 X
Track quality 99.9 %
Test CRC B5EF9649
Copy CRC B5EF9649
Accurately ripped (confidence 4) [53324A18] (AR v2)
Copy OK

Track 13

Filename D:\f\Brooks, Hunter & Walker - Lone Star Shootout (1999) [FLAC]\13 - I Met the Blues In Person.wav

Peak level 90.3 %
Extraction speed 10.3 X
Track quality 100.0 %
Test CRC 6DF5B10E
Copy CRC 6DF5B10E
Accurately ripped (confidence 4) [248932B7] (AR v2)
Copy OK

Track 14

Filename D:\f\Brooks, Hunter & Walker - Lone Star Shootout (1999) [FLAC]\14 - It's Mighty Crazy.wav

Peak level 100.0 %
Extraction speed 10.2 X
Track quality 100.0 %
Test CRC C6FFB8F9
Copy CRC C6FFB8F9
Accurately ripped (confidence 4) [DBA01825] (AR v2)
Copy OK

Track 15

Filename D:\f\Brooks, Hunter & Walker - Lone Star Shootout (1999) [FLAC]\15 - Two Trains Running.wav

Peak level 100.0 %
Extraction speed 11.1 X
Track quality 100.0 %
Test CRC E63ADFED
Copy CRC E63ADFED
Accurately ripped (confidence 4) [A3DA6B0F] (AR v2)
Copy OK


All tracks accurately ripped

No errors occurred

End of status report

–– CUETools DB Plugin V2.1.4

[CTDB TOCID: 5CpmwpcHuwrsvwmZU9EY7HepfhE-] found
Submit result: 5CpmwpcHuwrsvwmZU9EY7HepfhE- has been confirmed
Track | CTDB Status
1 | (6/6) Accurately ripped
2 | (6/6) Accurately ripped
3 | (6/6) Accurately ripped
4 | (6/6) Accurately ripped
5 | (6/6) Accurately ripped
6 | (6/6) Accurately ripped
7 | (6/6) Accurately ripped
8 | (6/6) Accurately ripped
9 | (6/6) Accurately ripped
10 | (6/6) Accurately ripped
11 | (6/6) Accurately ripped
12 | (6/6) Accurately ripped
13 | (6/6) Accurately ripped
14 | (6/6) Accurately ripped
15 | (6/6) Accurately ripped


==== Log checksum 484E0B7110039DFFD9E5D2F45511EB98D0B52EFA8B8CE2CB843142B97273DCBB ====

foobar2000 1.2 / Dynamic Range Meter 1.1.1
log date: 2018-06-14 01:39:15

––––––––––––––––––––––––––––––––––––––––
Analyzed: Brooks, Hunter & Walker / Lone Star Shootout
––––––––––––––––––––––––––––––––––––––––

DR Peak RMS Duration Track
––––––––––––––––––––––––––––––––––––––––
DR12 0.00 dB -13.10 dB 3:22 01-Roll, Roll, Roll
DR11 -2.23 dB -14.19 dB 3:09 02-Boogie Rambler
DR11 0.00 dB -12.52 dB 4:21 03-A Little More Time
DR13 0.00 dB -14.28 dB 3:54 04-Bon Ton Roulet
DR11 0.00 dB -11.75 dB 4:15 05-Feel Good Doin' Bad
DR12 -1.21 dB -14.68 dB 5:18 06-Alligators Around My Door
DR12 -0.49 dB -13.84 dB 4:22 07-Street Walking Woman
DR13 0.00 dB -14.11 dB 3:40 08-This Should Go On Forever
DR12 -0.16 dB -13.13 dB 3:21 09-You're Playing Hooky
DR12 -0.55 dB -14.18 dB 5:08 10-Born In Louisiana
DR11 -1.49 dB -13.96 dB 4:11 11-Quit My Baby
DR13 0.00 dB -14.36 dB 3:54 12-I Can't Stand It No More
DR12 -0.88 dB -14.06 dB 5:01 13-I Met the Blues In Person
DR12 0.00 dB -13.58 dB 3:46 14-It's Mighty Crazy
DR14 0.00 dB -15.97 dB 5:57 15-Two Trains Running
––––––––––––––––––––––––––––––––––––––––

Number of tracks: 15
Official DR value: DR12

Samplerate: 44100 Hz
Channels: 2
Bits per sample: 16
Bitrate: 771 kbps
Codec: FLAC
================================================================================

Lonnie Brooks, Long John Hunter, Phillip Walker - Lone Star Shootout (1999)

Lonnie Brooks, Long John Hunter, Phillip Walker - Lone Star Shootout (1999)

All thanks to original releaser - L9

More interesting music in My Blog