Subcategories

Mickey Jupp - As The Yeahs Go By (1991)

Posted By: Designol
Mickey Jupp - As The Yeahs Go By (1991)

Mickey Jupp - As The Yeahs Go By (1991)
EAC | FLAC | Tracks (Cue&Log) ~ 247 Mb | Mp3 (CBR320) ~ 115 Mb | Scans included
Pub Rock, Rock & Roll, Rhythm & Blues | Label: Line | # LICD 9.01026 O | 00:43:41

Like Dave Edmunds, guitarist/pianist/vocalist Mickey Jupp was a champion of traditional rock & roll during the late '70s, a time when it had been all but discarded. Unlike Edmunds, Jupp wrote the majority of his own material, which updated '50s rock & roll with a tongue-in-cheek irony.

Jupp began his career with the Essex-based British R&B group the Orioles in the early '60s. The band earned a devoted local following in the early '60s, yet they never had the opportunity to record. The Orioles broke up late in 1965 after Jupp was arrested for not making alimony payments to his wife. Three years later, he returned to music, forming Legend, who laid the groundwork for English pub rock of the early '70s. Following the release of their third album in 1971, Legend disbanded and Jupp took another lengthy break from music. When he was coaxed back into performing in 1975 by Lee Brileaux, the lead singer of Dr. Feelgood, pub rock was in its last days yet Jupp was well respected in the scene, since both Ducks Deluxe and Dr. Feelgood had recorded versions of his songs ("Cheque Book" and "Down at the Doctors," respectively).

Jupp released his first solo single, "Nature's Radio," on Arista Records in 1978. The single led to a contract with Stiff Records, who released the "Old Rock 'N' Roller" single and the Juppanese album in 1978; the bulk of Juppanese was recorded with Rockpile and produced by Nick Lowe. Released the same year as his debut, Mickey Jupp's Legend featured material from his previous band. Following the release of Juppanese, Jupp joined Stiff's Rail Tour, although he left the lineup before it hit the U.S. because he was afraid of flying. Shortly afterward, he left Stiff Records and signed with Chrysalis in 1979. The same year he released Long Distance Romancer, which was produced by 10cc members Kevin Godley and Lol Creme; like Juppanese, it failed to gain a large audience. Jupp moved over to A&M Records in 1982, releasing Some People Can't Dance. After releasing one more record on A&M, 1983's Shampoo Haircut and Shave, he was dropped from the label. Jupp spent the rest of the '80s and '90s touring the U.K., releasing the occasional album on independent labels.

Stephen Thomas Erlewine, Allmusic.com

"As the Yeahs Go By" is the first Mickey Jupp album I ever heard and the first one I ever owned. It made me such a die-hard fan that I now have all his albums except one, which was only released on vinyl and which I haven't been able to find yet. Although I already had "As the Yeahs Go By, I recently bought the newer release for the bonus tracks on it, which my older release does not contain. This is one of Mickey's finest albums and should not be missed by any serious fan or collector of classic rock.

Review by oldrocknroller, Amazon.com

Mickey Jupp - As The Yeahs Go By (1991)



Tracklist:

01. Standing At The Crossroads Again (3:22)
02. No Place Like Home (3:03)
03. All Sorts To Make A Woman (2:42)
04. Nothing Happened Today (3:22)
05. Not Wanted Anymore (3:33)
06. The Someone Special (2:26)
07. From A Barstool (3:15)
08. Old Rock'n'Roller (3:43)
09. There's A Thing (3:26)
10. Till Honky Gets Tonky Again (4:12)
11. Rock'n'Roll Peg (3:20)
12. Doo Wop Shang-A-Lang Shimmy Shimmy (4:18)
13. Funny Old World (3:00)


Exact Audio Copy V1.0 beta 3 from 29. August 2011

EAC extraction logfile from 6. August 2013, 19:54

Mickey Jupp / As The Yeahs Go By

Used drive : HL-DT-STDVDRAM GSA-T40N Adapter: 1 ID: 0

Read mode : Secure
Utilize accurate stream : Yes
Defeat audio cache : Yes
Make use of C2 pointers : No

Read offset correction : 667
Overread into Lead-In and Lead-Out : No
Fill up missing offset samples with silence : Yes
Delete leading and trailing silent blocks : No
Null samples used in CRC calculations : Yes
Used interface : Native Win32 interface for Win NT & 2000
Gap handling : Appended to previous track

Used output format : User Defined Encoder
Selected bitrate : 1024 kBit/s
Quality : High
Add ID3 tag : No
Command line compressor : C:\Program Files\Exact Audio Copy\Flac\flac.exe
Additional command line options : -8 -V -T "ARTIST=%artist%" -T "TITLE=%title%" -T "ALBUM=%albumtitle%" -T "DATE=%year%" -T "TRACKNUMBER=%tracknr%" -T "GENRE=%genre%" -T "PERFORMER=%albuminterpret%" -T "COMPOSER=%composer%" %haslyrics%–tag-from-file=LYRICS="%lyricsfile%"%haslyrics% -T "ALBUMARTIST=%albumartist%" -T "ALBUM ARTIST=%albumartist%" -T "DISCNUMBER=%cdnumber%" -T "TOTALDISCS=%totalcds%" -T "TOTALTRACKS=%numtracks%" -T "COMMENT=EAC V1.0 beta 2, Secure Mode, Test & Copy, AccurateRip, FLAC -8" %source% -o %dest%


TOC of the extracted CD

Track | Start | Length | Start sector | End sector
––––––––––––––––––––––––––––-
1 | 0:00.00 | 3:22.00 | 0 | 15149
2 | 3:22.00 | 3:03.30 | 15150 | 28904
3 | 6:25.30 | 2:41.70 | 28905 | 41049
4 | 9:07.25 | 3:21.67 | 41050 | 56191
5 | 12:29.17 | 3:32.45 | 56192 | 72136
6 | 16:01.62 | 2:26.20 | 72137 | 83106
7 | 18:28.07 | 3:14.53 | 83107 | 97709
8 | 21:42.60 | 3:42.57 | 97710 | 114416
9 | 25:25.42 | 3:26.23 | 114417 | 129889
10 | 28:51.65 | 4:11.60 | 129890 | 148774
11 | 33:03.50 | 3:20.00 | 148775 | 163774
12 | 36:23.50 | 4:17.60 | 163775 | 183109
13 | 40:41.35 | 2:59.40 | 183110 | 196574


Track 1

Filename E:\Video\Audio\Mickey Jupp - [01] Standing At The Crossroads Again.wav

Pre-gap length 0:00:02.00

Peak level 86.5 %
Extraction speed 2.4 X
Track quality 100.0 %
Test CRC 34A62A57
Copy CRC 34A62A57
Accurately ripped (confidence 6) [F192EE70] (AR v2)
Copy OK

Track 2

Filename E:\Video\Audio\Mickey Jupp - [02] No Place Like Home.wav

Pre-gap length 0:00:03.00

Peak level 98.4 %
Extraction speed 2.5 X
Track quality 100.0 %
Test CRC 87DA734E
Copy CRC 87DA734E
Accurately ripped (confidence 6) [CD7EE339] (AR v2)
Copy OK

Track 3

Filename E:\Video\Audio\Mickey Jupp - [03] All Sorts To Make A Woman.wav

Pre-gap length 0:00:02.90

Peak level 79.7 %
Extraction speed 2.6 X
Track quality 100.0 %
Test CRC 11F07402
Copy CRC 11F07402
Accurately ripped (confidence 6) [E7B08B2C] (AR v2)
Copy OK

Track 4

Filename E:\Video\Audio\Mickey Jupp - [04] Nothing Happened Today.wav

Pre-gap length 0:00:02.33

Peak level 89.5 %
Extraction speed 2.9 X
Track quality 100.0 %
Test CRC 92859A40
Copy CRC 92859A40
Accurately ripped (confidence 6) [59077784] (AR v2)
Copy OK

Track 5

Filename E:\Video\Audio\Mickey Jupp - [05] Not Wanted Anymore.wav

Pre-gap length 0:00:02.22

Peak level 77.7 %
Extraction speed 3.2 X
Track quality 100.0 %
Test CRC CD1A3E43
Copy CRC CD1A3E43
Accurately ripped (confidence 6) [E97F8088] (AR v2)
Copy OK

Track 6

Filename E:\Video\Audio\Mickey Jupp - [06] The Someone Special.wav

Pre-gap length 0:00:02.82

Peak level 65.7 %
Extraction speed 3.1 X
Track quality 100.0 %
Test CRC 5A3E75D1
Copy CRC 5A3E75D1
Accurately ripped (confidence 6) [CFF020F2] (AR v2)
Copy OK

Track 7

Filename E:\Video\Audio\Mickey Jupp - [07] From A Barstool.wav

Pre-gap length 0:00:04.09

Peak level 91.8 %
Extraction speed 3.4 X
Track quality 100.0 %
Test CRC EA3CA0E3
Copy CRC EA3CA0E3
Accurately ripped (confidence 6) [1A751324] (AR v2)
Copy OK

Track 8

Filename E:\Video\Audio\Mickey Jupp - [08] Old Rock'n'Roller.wav

Pre-gap length 0:00:01.80

Peak level 85.4 %
Extraction speed 3.2 X
Track quality 99.9 %
Test CRC F64225D0
Copy CRC F64225D0
Accurately ripped (confidence 6) [D20ED2A2] (AR v2)
Copy OK

Track 9

Filename E:\Video\Audio\Mickey Jupp - [09] There's A Thing.wav

Pre-gap length 0:00:02.56

Peak level 79.0 %
Extraction speed 3.8 X
Track quality 100.0 %
Test CRC DE68671B
Copy CRC DE68671B
Accurately ripped (confidence 6) [FC768A4D] (AR v2)
Copy OK

Track 10

Filename E:\Video\Audio\Mickey Jupp - [10] Till Honky Gets Tonky Again.wav

Pre-gap length 0:00:02.86

Peak level 83.2 %
Extraction speed 4.1 X
Track quality 100.0 %
Test CRC 4E6D19AA
Copy CRC 4E6D19AA
Accurately ripped (confidence 6) [66319E2E] (AR v2)
Copy OK

Track 11

Filename E:\Video\Audio\Mickey Jupp - [11] Rock'n'Roll Peg.wav

Pre-gap length 0:00:03.66

Peak level 92.3 %
Extraction speed 4.1 X
Track quality 100.0 %
Test CRC D8CF268D
Copy CRC D8CF268D
Accurately ripped (confidence 6) [96968FF3] (AR v2)
Copy OK

Track 12

Filename E:\Video\Audio\Mickey Jupp - [12] Doo Wop Shang-A-Lang Shimmy Shimmy.wav

Pre-gap length 0:00:02.17

Peak level 93.6 %
Extraction speed 4.4 X
Track quality 100.0 %
Test CRC 6BFB2A56
Copy CRC 6BFB2A56
Accurately ripped (confidence 6) [6B51A465] (AR v2)
Copy OK

Track 13

Filename E:\Video\Audio\Mickey Jupp - [13] Funny Old World.wav

Pre-gap length 0:00:01.30

Peak level 73.3 %
Extraction speed 4.3 X
Track quality 100.0 %
Test CRC C92B2C2E
Copy CRC C92B2C2E
Accurately ripped (confidence 6) [E84D32FF] (AR v2)
Copy OK


All tracks accurately ripped

No errors occurred

End of status report

==== Log checksum B6166C64FE8A418E0F9C56FF339DAEE7B3404FB2A16509C1F4833E5198077456 ====

[CUETools log; Date: 13.06.2018 22:54:21; Version: 2.1.4]
[CTDB TOCID: JjLz4sVA5BRLOelzJ60v6c6.pVQ-] found.
Track | CTDB Status
1 | (14/14) Accurately ripped
2 | (14/14) Accurately ripped
3 | (14/14) Accurately ripped
4 | (14/14) Accurately ripped
5 | (14/14) Accurately ripped
6 | (14/14) Accurately ripped
7 | (14/14) Accurately ripped
8 | (14/14) Accurately ripped
9 | (14/14) Accurately ripped
10 | (14/14) Accurately ripped
11 | (14/14) Accurately ripped
12 | (14/14) Accurately ripped
13 | (14/14) Accurately ripped
[AccurateRip ID: 00144e69-00cccb49-a70a3d0d] found.
Track [ CRC | V2 ] Status
01 [9a2c1c74|f192ee70] (06+10/16) Accurately ripped
02 [ff3d5142|cd7ee339] (06+10/16) Accurately ripped
03 [d74917fd|e7b08b2c] (06+10/16) Accurately ripped
04 [462c45a5|59077784] (06+10/16) Accurately ripped
05 [8edc2b6d|e97f8088] (06+10/16) Accurately ripped
06 [87b0aa04|cff020f2] (06+10/16) Accurately ripped
07 [b9d3cd68|1a751324] (06+10/16) Accurately ripped
08 [3b33e55d|d20ed2a2] (06+10/16) Accurately ripped
09 [31ceb7ca|fc768a4d] (06+10/16) Accurately ripped
10 [360c8718|66319e2e] (06+10/16) Accurately ripped
11 [1f119576|96968ff3] (06+10/16) Accurately ripped
12 [0c9add55|6b51a465] (06+10/16) Accurately ripped
13 [42c1dcf9|e84d32ff] (06+10/16) Accurately ripped

Track Peak [ CRC32 ] [W/O NULL] [ LOG ]
– 98,4 [09EC8557] [B251E403]
01 86,5 [34A62A57] [5B5E1689] CRC32
02 98,4 [87DA734E] [5B9C559F] CRC32
03 79,7 [11F07402] [6AF2C14B] CRC32
04 89,5 [92859A40] [C7785C71] CRC32
05 77,7 [CD1A3E43] [4394CAA7] CRC32
06 65,7 [5A3E75D1] [41F483F9] CRC32
07 91,8 [EA3CA0E3] [16402CB3] CRC32
08 85,4 [F64225D0] [B045C99D] CRC32
09 79,0 [DE68671B] [2DA40743] CRC32
10 83,2 [4E6D19AA] [DFB7EF8A] CRC32
11 92,3 [D8CF268D] [7E3F5AFD] CRC32
12 93,6 [6BFB2A56] [CF8647DC] CRC32
13 73,3 [C92B2C2E] [08BBC296] CRC32

foobar2000 1.2 / Dynamic Range Meter 1.1.1
log date: 2018-06-13 22:56:35

––––––––––––––––––––––––––––––––––––––––
Analyzed: Mickey Jupp / As The Yeahs Go By
––––––––––––––––––––––––––––––––––––––––

DR Peak RMS Duration Track
––––––––––––––––––––––––––––––––––––––––
DR14 -1.26 dB -16.79 dB 3:22 01-Standing At The Crossroads Again
DR13 -0.13 dB -17.01 dB 3:03 02-No Place Like Home
DR13 -1.97 dB -18.33 dB 2:42 03-All Sorts To Make A Woman
DR15 -0.95 dB -19.13 dB 3:22 04-Nothing Happened Today
DR16 -2.19 dB -22.56 dB 3:33 05-Not Wanted Anymore
DR14 -3.64 dB -20.28 dB 2:26 06-The Someone Special
DR14 -0.74 dB -16.61 dB 3:15 07-From A Barstool
DR14 -1.36 dB -18.16 dB 3:43 08-Old Rock'n'Roller
DR14 -2.04 dB -19.21 dB 3:26 09-There's A Thing
DR14 -1.60 dB -18.90 dB 4:12 10-Till Honky Gets Tonky Again
DR14 -0.69 dB -18.02 dB 3:20 11-Rock'n'Roll Peg
DR15 -0.57 dB -17.08 dB 4:18 12-Doo Wop Shang-A-Lang Shimmy Shimmy
DR19 -2.70 dB -23.62 dB 3:00 13-Funny Old World
––––––––––––––––––––––––––––––––––––––––

Number of tracks: 13
Official DR value: DR14

Samplerate: 44100 Hz
Channels: 2
Bits per sample: 16
Bitrate: 688 kbps
Codec: FLAC
================================================================================

Marc Cohn - Marc Cohn

Marc Cohn - Marc Cohn