Subcategories

Melody's Echo Chamber - Bon Voyage (2018)

Posted By: delpotro
Melody's Echo Chamber - Bon Voyage (2018)

Melody's Echo Chamber - Bon Voyage (2018)
XLD Rip | FLAC (tracks+log+.cue) - 207 Mb | MP3 CBR 320 kbps - 77 Mb | 00:33:24
Psychedelic Rock, Dreampop, Shoegaze, Female Vocal | Label: Fat Possum Records, Domino Records

A year ago, on her 30th birthday, Melody Prochet announced her second album as Melody’s Echo Chamber, titled Bon Voyage. At the time, a new song was released, and a tour was planned. It seemed like Prochet was finally ready to follow up her breakthrough 2012 self-titled debut. But soon after, everything was put on hold: Her family released a statement announcing that she would be hospitalized for months due to a “serious accident.” An ensuing report stated that she had fallen, broken vertebrae in her neck and spine, and suffered a brain aneurysm.

Though Prochet is not yet ready to talk about the specifics surrounding last year’s events, it’s clear is that she’s doing better. “Today I feel blessed, as I’m healed,” she writes Pitchfork via email. “It’s been traumatic but it has beautifully put some perspective into my eyes and broke a life pattern that didn’t work for me. I’m lucky it revealed more light.”

And now, Bon Voyage is once again set to surface, on June 15. The folk-prog odyssey teems with ideas and sounds—flute solo breakdowns, half-whispered singing, multiple languages, and psychedelic guitar freakouts. Before her accident, the French artist decamped to Sweden to work on the album with psychedelic brethren Fredrik Swahn of the Amazing and Dungen’s Reine Fiske. In part, the music is a testament to the trio’s mutual love of deep-cut oddities. (Prochet cites Turkish composer Özdemir Erdoğan, Brazilian singer-songwriter Milton Nascimento, and soulful crate-digger favorite Shuggie Otis as influences.) The resulting record is one that she describes as “a little winter’s tale.”
Tracklist:
01. Cross My Heart (6:55)
02. Breathe in, Breathe Out (2:50)
03. Desert Horse (5:14)
04. Var Har Du Vart? (1:28)
05. Quand Les Larmes D'un Ange Font Danser La Neige (7:07)
06. Visions of Someone Special, On a Wall of Reflections (4:55)
07. Shirim (4:46)

X Lossless Decoder version 20170729 (150.3)

XLD extraction logfile from 2018-06-13 10:13:13 -0400

Melody's Echo Chamber / Bon Voyage

Used drive : HL-DT-ST DVDRAM SP80NB60 (revision PC00)
Media type : Pressed CD

Ripper mode : XLD Secure Ripper
Disable audio cache : OK for the drive with a cache less than 1375KiB
Make use of C2 pointers : NO
Read offset correction : 6
Max retry count : 20
Gap status : Analyzed, Appended (except HTOA)

TOC of the extracted CD
Track | Start | Length | Start sector | End sector
––––––––––––––––––––––––––––-
1 | 00:00:00 | 06:55:33 | 0 | 31157
2 | 06:55:33 | 02:50:70 | 31158 | 43977
3 | 09:46:28 | 05:15:04 | 43978 | 67606
4 | 15:01:32 | 01:28:17 | 67607 | 74223
5 | 16:29:49 | 07:06:71 | 74224 | 106244
6 | 23:36:45 | 05:00:73 | 106245 | 128817
7 | 28:37:43 | 04:46:56 | 128818 | 150323

AccurateRip Summary
Disc not found in AccurateRip DB.

All Tracks
Album gain : -7.42 dB
Peak : 0.998871
Statistics
Read error : 0
Jitter error (maybe fixed) : 0
Retry sector count : 0
Damaged sector count : 0

Track 01
Filename : /Users/Shared/Melody's Echo Chamber - Bon Voyage (2018) [FLAC]/01 Cross My Heart.flac
Pre-gap length : 00:02:00

Track gain : -7.17 dB
Peak : 0.998871
CRC32 hash (test run) : 8FE0BCFC
CRC32 hash : 8FE0BCFC
CRC32 hash (skip zero) : AA96ADA0
AccurateRip v1 signature : 5BC16DE3
AccurateRip v2 signature : 006CB56A
->Track not present in AccurateRip database.
Statistics
Read error : 0
Jitter error (maybe fixed) : 0
Retry sector count : 0
Damaged sector count : 0

Track 02
Filename : /Users/Shared/Melody's Echo Chamber - Bon Voyage (2018) [FLAC]/02 Breathe In, Breathe Out.flac

Track gain : -6.93 dB
Peak : 0.998871
CRC32 hash (test run) : 697DAA38
CRC32 hash : 697DAA38
CRC32 hash (skip zero) : 26B56F8F
AccurateRip v1 signature : 117B2E3C
AccurateRip v2 signature : 728EBF11
->Track not present in AccurateRip database.
Statistics
Read error : 0
Jitter error (maybe fixed) : 0
Retry sector count : 0
Damaged sector count : 0

Track 03
Filename : /Users/Shared/Melody's Echo Chamber - Bon Voyage (2018) [FLAC]/03 Desert Horse.flac
Pre-gap length : 00:00:32

Track gain : -7.11 dB
Peak : 0.998871
CRC32 hash (test run) : 1DBA0A40
CRC32 hash : 1DBA0A40
CRC32 hash (skip zero) : 57AE9CD7
AccurateRip v1 signature : 82657C3D
AccurateRip v2 signature : F2D4B18D
->Track not present in AccurateRip database.
Statistics
Read error : 0
Jitter error (maybe fixed) : 0
Retry sector count : 0
Damaged sector count : 0

Track 04
Filename : /Users/Shared/Melody's Echo Chamber - Bon Voyage (2018) [FLAC]/04 Var Har Du Vart.flac

Track gain : -4.46 dB
Peak : 0.998840
CRC32 hash (test run) : EC2008C0
CRC32 hash : EC2008C0
CRC32 hash (skip zero) : 023D4A8C
AccurateRip v1 signature : 3A5BB48D
AccurateRip v2 signature : DFB5E830
->Track not present in AccurateRip database.
Statistics
Read error : 0
Jitter error (maybe fixed) : 0
Retry sector count : 0
Damaged sector count : 0

Track 05
Filename : /Users/Shared/Melody's Echo Chamber - Bon Voyage (2018) [FLAC]/05 Quand Les Larmes D'un Ange Font Danser La Neige.flac
Pre-gap length : 00:00:69

Track gain : -8.34 dB
Peak : 0.998871
CRC32 hash (test run) : 85BC3500
CRC32 hash : 85BC3500
CRC32 hash (skip zero) : 0D2A4B08
AccurateRip v1 signature : 45699AC7
AccurateRip v2 signature : C7CF2F47
->Track not present in AccurateRip database.
Statistics
Read error : 0
Jitter error (maybe fixed) : 0
Retry sector count : 0
Damaged sector count : 0

Track 06
Filename : /Users/Shared/Melody's Echo Chamber - Bon Voyage (2018) [FLAC]/06 Visions Of Someone Special, On A Wall Of Reflections.flac
Pre-gap length : 00:00:58

Track gain : -6.63 dB
Peak : 0.996979
CRC32 hash (test run) : 13D174A9
CRC32 hash : 13D174A9
CRC32 hash (skip zero) : 5AE2DD6E
AccurateRip v1 signature : 604568A1
AccurateRip v2 signature : 833E2855
->Track not present in AccurateRip database.
Statistics
Read error : 0
Jitter error (maybe fixed) : 0
Retry sector count : 0
Damaged sector count : 0

Track 07
Filename : /Users/Shared/Melody's Echo Chamber - Bon Voyage (2018) [FLAC]/07 Shirim.flac
Pre-gap length : 00:05:38

Track gain : -5.51 dB
Peak : 0.996735
CRC32 hash (test run) : 57A3EEF8
CRC32 hash : 57A3EEF8
CRC32 hash (skip zero) : 2811D55F
AccurateRip v1 signature : 4CDADB6D
AccurateRip v2 signature : 90246200
->Track not present in AccurateRip database.
Statistics
Read error : 0
Jitter error (maybe fixed) : 0
Retry sector count : 0
Damaged sector count : 0

No errors occurred

End of status report

––-BEGIN XLD SIGNATURE––-
DAMoAglNUrQih.U..GSKbED0WAv7vaptVahWLsOmyinJwqS02bGh4UvRPZs7N93wJMkhA5JI89yGe.dGitQXMx0YbcQh1WSt1tKOq7a
––-END XLD SIGNATURE––-

Thanks to the Original ripper zbikerman !