Billions S03E12

Posted By: Tavaz
720p (HD) / HDTV IMDb
Billions S03E12

Billions S03E12
HDTV | MKV | 1280x720 | German | H264 @ 1535 kbps | AC-3 @ 384 kbps | 53 min 24 s | 748 MiB
Genre: Drama

Die US-Serie "Billions" spielt in der Finanzwelt der Wall Street, wo der United States Attorney Chuck Rhodes mit dem Hedgefonds-Mastermind Bobby Axelrod aneinandergerät. In einem Geflecht aus Politik und Intrigen stehen Milliarden auf dem Spiel.

Billions.S03E12.GERMAN.720p.HDTV.x264-ACED.mkv (748.2 MB)
billions.s03e12.german.720p.hdtv.x264-aced.sample.mkv (27.9 MB)



General
Unique ID : 67587478311941075258897763201522652696 (0x32D8DFF52A09E43AC6F134DF1FD4D618)
Complete name : ./Billions.S03E12.GERMAN.720p.HDTV.x264-ACED.mkv
Format : Matroska
Format version : Version 4 / Version 2
File size : 748 MiB
Duration : 53 min 24 s
Overall bit rate : 1 959 kb/s
Encoded date : UTC 2018-06-12 07:00:21
Writing application : mkvmerge v23.0.0 ('The Bride Said No') 64-bit
Writing library : libebml v1.3.6 + libmatroska v1.4.9

Video
ID : 1
Format : AVC
Format/Info : Advanced Video Codec
Format profile : [email protected]
Format settings : CABAC / 5 Ref Frames
Format settings, CABAC : Yes
Format settings, RefFrames : 5 frames
Codec ID : V_MPEG4/ISO/AVC
Duration : 53 min 24 s
Bit rate : 1 536 kb/s
Width : 1 280 pixels
Height : 720 pixels
Display aspect ratio : 16:9
Frame rate mode : Constant
Frame rate : 25.000 FPS
Color space : YUV
Chroma subsampling : 4:2:0
Bit depth : 8 bits
Scan type : Progressive
Bits/(Pixel*Frame) : 0.067
Stream size : 587 MiB (78%)
Writing library : x264 core 155 r2901 7d0ff22
Encoding settings : cabac=1 / ref=5 / deblock=1:-3:-3 / analyse=0x3:0x113 / me=umh / subme=9 / psy=1 / psy_rd=1.00:0.00 / mixed_ref=1 / me_range=16 / chroma_me=1 / trellis=2 / 8x8dct=1 / cqm=0 / deadzone=21,11 / fast_pskip=0 / chroma_qp_offset=-2 / threads=12 / lookahead_threads=1 / sliced_threads=0 / nr=0 / decimate=1 / interlaced=0 / bluray_compat=0 / constrained_intra=0 / bframes=3 / b_pyramid=2 / b_adapt=2 / b_bias=0 / direct=3 / weightb=1 / open_gop=0 / weightp=2 / keyint=250 / keyint_min=25 / scenecut=40 / intra_refresh=0 / rc_lookahead=50 / rc=crf / mbtree=1 / crf=18.0 / qcomp=0.60 / qpmin=0 / qpmax=69 / qpstep=4 / ip_ratio=1.40 / aq=1:1.00
Language : English
Default : Yes
Forced : No

Audio
ID : 2
Format : AC-3
Format/Info : Audio Coding 3
Format settings, Endianness : Big
Codec ID : A_AC3
Duration : 53 min 24 s
Bit rate mode : Constant
Bit rate : 384 kb/s
Channel(s) : 5 channels
Channel positions : Front: L C R, Side: L R
Sampling rate : 48.0 kHz
Frame rate : 31.250 FPS (1536 SPF)
Bit depth : 16 bits
Compression mode : Lossy
Stream size : 147 MiB (20%)
Language : German
Service kind : Complete Main
Default : Yes
Forced : No





Billions S03E12


Billions S03E12


Billions S03E12


Billions S03E12


Billions S03E12

All episodes