Westworld S02E05

Posted By: Tavaz
1080p (FullHD) / WEB-DL IMDb
Westworld S02E05

Westworld S02E05
WEB-DL | MKV | 1920x1080 | English | H264 @ 12519 kbps | E-AC-3 @ 640 kbps | 1 h 1 min | 5.61 GiB
Subtitles: English
Genre: Science Fiction, Western

A dark odyssey about the dawn of artificial consciousness and the evolution of sin. Set at the intersection of the near future and the reimagined past, it explores a world in which every human appetite, no matter how noble or depraved, can be indulged.

03f599e615df4ef08915775879d7e54e.mkv (5.6 GB)



General
Unique ID : 48256517415524853884881916938552355063 (0x244DDE002DF9B251D92CCBAA284028F7)
Complete name : ./03f599e615df4ef08915775879d7e54e.mkv
Format : Matroska
Format version : Version 4 / Version 2
File size : 5.61 GiB
Duration : 1 h 1 min
Overall bit rate : 13.2 Mb/s
Encoded date : UTC 2018-05-21 01:25:56
Writing application : mkvmerge v19.0.0 ('Brave Captain') 64-bit
Writing library : libebml v1.3.5 + libmatroska v1.4.8

Video
ID : 1
Format : AVC
Format/Info : Advanced Video Codec
Format profile : [email protected]
Format settings : CABAC / 4 Ref Frames
Format settings, CABAC : Yes
Format settings, RefFrames : 4 frames
Codec ID : V_MPEG4/ISO/AVC
Duration : 1 h 1 min
Bit rate : 12.5 Mb/s
Width : 1 920 pixels
Height : 1 080 pixels
Display aspect ratio : 16:9
Frame rate mode : Constant
Frame rate : 23.976 (24000/1001) FPS
Color space : YUV
Chroma subsampling : 4:2:0
Bit depth : 8 bits
Scan type : Progressive
Bits/(Pixel*Frame) : 0.252
Stream size : 5.34 GiB (95%)
Default : Yes
Forced : No
Color range : Limited
Color primaries : BT.709
Transfer characteristics : BT.709
Matrix coefficients : BT.709

Audio
ID : 2
Format : E-AC-3
Format/Info : Enhanced Audio Coding 3
Format settings, Endianness : Big
Codec ID : A_EAC3
Duration : 1 h 1 min
Bit rate mode : Constant
Bit rate : 640 kb/s
Channel(s) : 6 channels
Channel positions : Front: L C R, Side: L R, LFE
Sampling rate : 48.0 kHz
Frame rate : 187.500 FPS (256 SPF)
Compression mode : Lossy
Delay relative to video : 29 ms
Stream size : 279 MiB (5%)
Language : English
Service kind : Complete Main
Default : Yes
Forced : No

Text #1
ID : 3
Format : UTF-8
Codec ID : S_TEXT/UTF8
Codec ID/Info : UTF-8 Plain Text
Duration : 1 h 0 min
Bit rate : 24 b/s
Count of elements : 363
Stream size : 11.0 KiB (0%)
Language : English
Default : No
Forced : No

Text #2
ID : 4
Format : UTF-8
Codec ID : S_TEXT/UTF8
Codec ID/Info : UTF-8 Plain Text
Duration : 1 h 0 min
Bit rate : 30 b/s
Count of elements : 485
Stream size : 13.8 KiB (0%)
Title : SDH
Language : English
Default : No
Forced : No





Westworld S02E05


Westworld S02E05


Westworld S02E05


Westworld S02E05


Westworld S02E05

All episodes