The Mick S02E11

Posted By: Tavaz
SD / HDTV IMDb
The Mick S02E11

The Mick S02E11
HDTV | MKV | 720x404 | German | H264 @ 939 kbps | AC-3 @ 192 kbps | 20 min 43 s | 171 MiB
Genre: Komödie

Mackenzie „The Mick“ Murphy (Kaitlin Olson) ist feierfreudig, flucht stets und hat es bisher geschafft, jeder Verantwortung oder „ehrlicher Arbeit“ zu entgehen. Stattdessen hat sie wo immer möglich den eigenen Vorteil gesucht und versucht, das System auszutricksen.

Nun ist sie beinahe am Ziel, ein Leben in Saus und Braus zu führen. Der einzige Haken: Sie muss es auf sich nehmen, sich um die Kinder ihrer Schwester zu kümmern, als die (mitsamt ihrem enorm reichen Ehemann) vor den Strafverfolgungsbehörden außer Landes flieht.

Dabei sind nicht nur die Kinder Sabrina (Sofia Black-D’Elia), Chip (Thomas Barbusca) und Ben (Jack Stanton) nervig, Mick muss sich auch noch mit der vornehmen Gegend auseinandersetzen, in der ihre Schwester ihr Haus hat.

the.mick.s02e11.german.hdtv.x264-aced.sample.mkv (5.7 MB)
The.Mick.S02E11.GERMAN.HDTV.x264-ACED.mkv (171.0 MB)



General
Unique ID : 268955792090960729173542870765635393842 (0xCA570059D01DA6E770BABA3E2CD85932)
Complete name : ./The.Mick.S02E11.GERMAN.HDTV.x264-ACED.mkv
Format : Matroska
Format version : Version 4 / Version 2
File size : 171 MiB
Duration : 20 min 43 s
Overall bit rate : 1 154 kb/s
Encoded date : UTC 2018-06-11 06:49:44
Writing application : mkvmerge v23.0.0 ('The Bride Said No') 64-bit
Writing library : libebml v1.3.6 + libmatroska v1.4.9

Video
ID : 1
Format : AVC
Format/Info : Advanced Video Codec
Format profile : [email protected]
Format settings : CABAC / 5 Ref Frames
Format settings, CABAC : Yes
Format settings, RefFrames : 5 frames
Codec ID : V_MPEG4/ISO/AVC
Duration : 20 min 43 s
Bit rate : 939 kb/s
Width : 720 pixels
Height : 404 pixels
Display aspect ratio : 16:9
Frame rate mode : Constant
Frame rate : 25.000 FPS
Color space : YUV
Chroma subsampling : 4:2:0
Bit depth : 8 bits
Scan type : Progressive
Bits/(Pixel*Frame) : 0.129
Stream size : 139 MiB (81%)
Writing library : x264 core 155 r2901 7d0ff22
Encoding settings : cabac=1 / ref=5 / deblock=1:-2:-2 / analyse=0x3:0x113 / me=umh / subme=8 / psy=1 / psy_rd=1.00:0.00 / mixed_ref=1 / me_range=16 / chroma_me=1 / trellis=2 / 8x8dct=1 / cqm=0 / deadzone=21,11 / fast_pskip=0 / chroma_qp_offset=-2 / threads=12 / lookahead_threads=2 / sliced_threads=0 / nr=0 / decimate=1 / interlaced=0 / bluray_compat=0 / constrained_intra=0 / bframes=3 / b_pyramid=2 / b_adapt=2 / b_bias=0 / direct=3 / weightb=1 / open_gop=0 / weightp=2 / keyint=250 / keyint_min=25 / scenecut=40 / intra_refresh=0 / rc_lookahead=50 / rc=crf / mbtree=1 / crf=19.0 / qcomp=0.60 / qpmin=0 / qpmax=69 / qpstep=4 / ip_ratio=1.40 / aq=1:0.80
Language : English
Default : Yes
Forced : No

Audio
ID : 2
Format : AC-3
Format/Info : Audio Coding 3
Format settings, Endianness : Big
Codec ID : A_AC3
Duration : 20 min 43 s
Bit rate mode : Constant
Bit rate : 192 kb/s
Channel(s) : 2 channels
Channel positions : Front: L R
Sampling rate : 48.0 kHz
Frame rate : 31.250 FPS (1536 SPF)
Bit depth : 16 bits
Compression mode : Lossy
Stream size : 28.5 MiB (17%)
Language : German
Service kind : Complete Main
Default : Yes
Forced : No





The Mick S02E11


The Mick S02E11


The Mick S02E11


The Mick S02E11


The Mick S02E11

All episodes