99 (2009)

Posted By: Tavaz
720p (HD) / WEB-DL IMDb
99 (2009)

99 (2009)
WEB-DL | MKV | 1280x720 | Hindi | H264 @ 4420 kbps | AC-3 @ 384 kbps | 2 h 18 min | 4.65 GiB
Subtitles: Polish, Portuguese, Spanish, French, English
Genre: Comedy, Crime

99 is an original story inspired by real events. It is as much "What could have been" as it is "What really happened." In other words, it is historical fiction - fiction being the keyword. It spans a few genres; it is slick, fast-paced, realistic and, importantly, very funny.In this "smart comedy" set in 1999, all the characters are found by a common feeling of being stuck at 99 in life - just one short of a 'century' - that elusive thing called "making it" in life!99 is an unpredictable and hilarious ride spread over two cities with colorful characters, unbelievable circumstances, small-time crooks, big-time conspiracies, fateful car crashes, loads of coffee, a briefcase full of money, a budding romance……. And a historical controversy brewing in the background!

e3bca275d87b46dbaca44e19bfdda618.mkv (4.6 GB)



General
Complete name : ./e3bca275d87b46dbaca44e19bfdda618.mkv
Format : Matroska
Format version : Version 4 / Version 2
File size : 4.65 GiB
Duration : 2 h 18 min
Overall bit rate mode : Variable
Overall bit rate : 4 801 kb/s
Encoded date : UTC 2018-05-11 11:51:54
Writing application : mkvmerge v22.0.0 ('At The End Of The World') 64-bit
Writing library : libebml v1.3.5 + libmatroska v1.4.8

Video
ID : 1
Format : AVC
Format/Info : Advanced Video Codec
Format profile : [email protected]
Format settings : CABAC / 3 Ref Frames
Format settings, CABAC : Yes
Format settings, RefFrames : 3 frames
Codec ID : V_MPEG4/ISO/AVC
Duration : 2 h 18 min
Bit rate mode : Variable
Bit rate : 4 420 kb/s
Maximum bit rate : 6 630 kb/s
Width : 1 280 pixels
Height : 720 pixels
Display aspect ratio : 16:9
Frame rate mode : Constant
Frame rate : 24.000 FPS
Color space : YUV
Chroma subsampling : 4:2:0
Bit depth : 8 bits
Scan type : Progressive
Bits/(Pixel*Frame) : 0.200
Stream size : 4.27 GiB (92%)
Writing library : x264 core 118
Encoding settings : cabac=1 / ref=3 / deblock=1:0:0 / analyse=0x1:0x111 / me=umh / subme=10 / psy=1 / psy_rd=1.00:0.00 / mixed_ref=1 / me_range=24 / chroma_me=1 / trellis=2 / 8x8dct=0 / cqm=0 / deadzone=21,11 / fast_pskip=1 / chroma_qp_offset=-2 / threads=6 / sliced_threads=0 / nr=0 / decimate=1 / interlaced=0 / bluray_compat=0 / constrained_intra=0 / bframes=2 / b_pyramid=0 / b_adapt=2 / b_bias=0 / direct=3 / weightb=1 / open_gop=0 / weightp=2 / keyint=48 / keyint_min=25 / scenecut=0 / intra_refresh=0 / rc_lookahead=0 / rc=2pass / mbtree=1 / bitrate=4420 / ratetol=1.0 / qcomp=0.50 / qpmin=6 / qpmax=51 / qpstep=4 / cplxblur=20.0 / qblur=0.5 / vbv_maxrate=6630 / vbv_bufsize=8840 / nal_hrd=vbr / ip_ratio=1.40 / aq=1:1.00
Default : Yes
Forced : No

Audio
ID : 2
Format : AC-3
Format/Info : Audio Coding 3
Format settings, Endianness : Big
Codec ID : A_AC3
Duration : 2 h 18 min
Bit rate mode : Constant
Bit rate : 384 kb/s
Channel(s) : 6 channels
Channel positions : Front: L C R, Side: L R, LFE
Sampling rate : 48.0 kHz
Frame rate : 31.250 FPS (1536 SPF)
Bit depth : 16 bits
Compression mode : Lossy
Stream size : 380 MiB (8%)
Language : Hindi
Service kind : Complete Main
Default : Yes
Forced : No

Text #1
ID : 3
Format : UTF-8
Codec ID : S_TEXT/UTF8
Codec ID/Info : UTF-8 Plain Text
Duration : 2 h 17 min
Bit rate : 65 b/s
Count of elements : 2082
Stream size : 66.1 KiB (0%)
Language : English
Default : No
Forced : No

Text #2
ID : 4
Format : UTF-8
Codec ID : S_TEXT/UTF8
Codec ID/Info : UTF-8 Plain Text
Duration : 2 h 14 min
Bit rate : 62 b/s
Count of elements : 2011
Stream size : 62.0 KiB (0%)
Title : European
Language : Spanish
Default : No
Forced : No

Text #3
ID : 5
Format : UTF-8
Codec ID : S_TEXT/UTF8
Codec ID/Info : UTF-8 Plain Text
Duration : 2 h 14 min
Bit rate : 61 b/s
Count of elements : 1980
Stream size : 60.7 KiB (0%)
Language : French
Default : No
Forced : No

Text #4
ID : 6
Format : UTF-8
Codec ID : S_TEXT/UTF8
Codec ID/Info : UTF-8 Plain Text
Duration : 2 h 18 min
Bit rate : 58 b/s
Count of elements : 2108
Stream size : 58.8 KiB (0%)
Language : Polish
Default : No
Forced : No

Text #5
ID : 7
Format : UTF-8
Codec ID : S_TEXT/UTF8
Codec ID/Info : UTF-8 Plain Text
Duration : 2 h 14 min
Bit rate : 66 b/s
Count of elements : 2012
Stream size : 65.1 KiB (0%)
Language : Portuguese
Default : No
Forced : No





99 (2009)


99 (2009)


99 (2009)


99 (2009)


99 (2009)