Loves of a Blonde / Lásky jedné plavovlásky (1965) [Criterion Collection]

Posted By: RSU75
SD / DVDRip IMDb
Loves of a Blonde / Lásky jedné plavovlásky (1965) [Criterion Collection]

Loves of a Blonde / Lásky jedné plavovlásky (1965) [Criterion Collection, Spine #144]
DVDRip | MKV | AVC 704x480, ~ 1.7 Mbps | 1hr 25mn | 1.12 GB
Czech: Dolby AC3, 1 ch
Subtitles: English
Genre: Comedy, Romance, Drama
IMDB Rating: 7.7/10 (6.075 votes)
Criterion.com


Director: Milos Forman
Writers: Milos Forman (screenplay), Milos Forman (story)
Stars: Hana Brejchová, Vladimír Pucholt, Vladimír Mensík

With sixteen women to each man, the odds are against Andula in her desperate search for love—that is, until a rakish piano player visits her small factory town and temporarily eases her longings. A tender and humorous look at Andula’s journey, from the first pangs of romance to its inevitable disappointments, Loves of a Blonde (Lásky jedné plavovlásky) immediately became a classic of the Czech New Wave and earned Milos Forman the first of his Academy Award nominations.



General
Unique ID : 172533591631122749513941715020419391419 (0x81CCC2D4670E0B92B03D987B73435FBB)
Complete name : M:\LovesOfABlonde.65.Cr.Dr\LovesOfABlonde.65.Cr.Dr.mkv
Format : Matroska
Format version : Version 4 / Version 2
File size : 1.12 GiB
Duration : 1 h 25 min
Overall bit rate : 1 885 kb/s
Movie name : Release RSU75
Encoded date : UTC 2018-06-07 08:08:22
Writing application : mkvmerge v6.6.0 ('The Edge Of The In Between') built on Dec 1 2013 17:55:00
Writing library : libebml v1.3.0 + libmatroska v1.4.1

Video
ID : 1
Format : AVC
Format/Info : Advanced Video Codec
Format profile : [email protected]
Format settings : CABAC / 4 Ref Frames
Format settings, CABAC : Yes
Format settings, RefFrames : 4 frames
Codec ID : V_MPEG4/ISO/AVC
Duration : 1 h 25 min
Bit rate : 1 700 kb/s
Width : 704 pixels
Height : 480 pixels
Display aspect ratio : 4:3
Frame rate mode : Constant
Frame rate : 25.000 FPS
Color space : YUV
Chroma subsampling : 4:2:0
Bit depth : 8 bits
Scan type : Progressive
Bits/(Pixel*Frame) : 0.201
Stream size : 1 008 MiB (88%)
Writing library : x264 core 144 r2533 c8a773e
Encoding settings : cabac=1 / ref=4 / deblock=1:0:0 / analyse=0x3:0x113 / me=umh / subme=8 / psy=1 / psy_rd=1.00:0.00 / mixed_ref=1 / me_range=24 / chroma_me=1 / trellis=1 / 8x8dct=1 / cqm=0 / deadzone=21,11 / fast_pskip=1 / chroma_qp_offset=-2 / threads=3 / lookahead_threads=1 / sliced_threads=0 / nr=0 / decimate=1 / interlaced=0 / bluray_compat=0 / constrained_intra=0 / bframes=3 / b_pyramid=0 / b_adapt=2 / b_bias=0 / direct=3 / weightb=1 / open_gop=0 / weightp=2 / keyint=250 / keyint_min=25 / scenecut=40 / intra_refresh=0 / rc_lookahead=40 / rc=abr / mbtree=1 / bitrate=1700 / ratetol=1.0 / qcomp=0.60 / qpmin=10 / qpmax=51 / qpstep=4 / ip_ratio=1.41 / aq=1:1.00
Language : English
Default : Yes
Forced : No

Audio
ID : 2
Format : AC-3
Format/Info : Audio Coding 3
Format settings, Endianness : Big
Codec ID : A_AC3
Duration : 1 h 25 min
Bit rate mode : Constant
Bit rate : 192 kb/s
Channel(s) : 1 channel
Channel positions : Front: C
Sampling rate : 48.0 kHz
Frame rate : 31.250 FPS (1536 SPF)
Bit depth : 16 bits
Compression mode : Lossy
Delay relative to video : -40 ms
Stream size : 117 MiB (10%)
Language : English
Service kind : Complete Main
Default : Yes
Forced : No

Text
ID : 3
Format : VobSub
Muxing mode : zlib
Codec ID : S_VOBSUB
Codec ID/Info : Picture based subtitle format used on DVDs
Language : English
Default : Yes
Forced : No

Menu
00:00:00.000 : en:Chapter 01
00:06:47.640 : en:Chapter 02
00:09:39.712 : en:Chapter 03
00:11:49.809 : en:Chapter 04
00:18:23.836 : en:Chapter 05
00:24:33.505 : en:Chapter 06
00:33:51.262 : en:Chapter 07
00:49:04.741 : en:Chapter 08
00:55:43.390 : en:Chapter 09
01:03:10.970 : en:Chapter 10
01:12:00.883 : en:Chapter 11
01:17:52.234 : en:Chapter 12
01:22:49.597 : en:Chapter 13




Screenshots (click to enlarge to original size):

Loves of a Blonde / Lásky jedné plavovlásky (1965) [Criterion Collection]

Loves of a Blonde / Lásky jedné plavovlásky (1965) [Criterion Collection]

Loves of a Blonde / Lásky jedné plavovlásky (1965) [Criterion Collection]


Loves of a Blonde / Lásky jedné plavovlásky (1965) [Criterion Collection]




–––––––––––––––––––––––––––––––––––––––-
>>> "Criterion Collection" <<<OR >>> "DVDRip" <<<OR >>> "Czech" <<<
–––––––––––––––––––––––––––––––––––––––-
>>> Visit Blog RSU75 Here <<<
–––––––––––––––––––––––––––––––––––––––-