Bonne Pioche - Mysteries of Paris: Series 1 (2018)

Posted By: notbanned
1080p (FullHD) / HDTV
Bonne Pioche - Mysteries of Paris: Series 1 (2018)

Bonne Pioche - Mysteries of Paris: Series 1 (2018)
HDTV | 1920x1080 | .MP4/AVC @ 5200 Kbps | 6x~24min | 5.72 GiB
Audio: English AAC 160 kbps, 2 channels | Subs: English
Genre: Documentary

So far, hundreds of experts have spent their entire life trying to decrypt the history of Paris. Lots of stories and rumors have remained unproved. Paris has been keeping its mysteries for centuries. Some arouse fascination and others spark fantasy. Facts, similarities and reliable witnesses, prove the occurrence of these events. In the coming 6 episodes, scientific and historical investigations are going to unveil the darkest secrets of the City of Lights. Here is the city of Paris like you have never seen it before.
Part 1: Allan Kardec and Spiritism
Can we communicate with spirits? A figure in the French capital of Paris maintained it was possible. His name was Allan Kardec, and what he achieved shook people's beliefs to the core. This is one of the city's most mysterious affairs. If we want to discover the truth, we must investigate.

Part 2: The Curse of the Phantom
This is the case of the rooms of the Palais Garnier, better known as the Paris Opera, which are said to be cursed. Numerous strange incidents have been recorded in them. To such an extent that many people claim they're the work of a ghost, the most famous ghost on earth: the Phantom of the Opera.

Part 3: Nicolas Flamel and Alchemy
In the Middle Ages, the French capital of Paris had its fair share of centuries-old mysteries and secrets. Among them, was the era of the alchemists, who claimed they could turn base metals into gold? The best known of the alchemists was Nicolas Flamel. We will shed light on the arcana of alchemy.

Part 4: The Secrets of the Templars
The most mysterious chivalric order Paris has ever known. The Knights Templar. Theirs is a story of secrets and intrigue. Legends abound about these knights. If we want to discover the truth, we must investigate here, in Paris.

Part 5: The Affair of the Poisons
This is one of the darkest pages in the history of Paris. It mixes conspiracy and assassination attempt against the king, poisoning, black mass and child sacrifices. It's called the poison case. How to distinguish the truth from the legend? To find out, it is here in Paris that we must investigate.

Part 6: Secrets Beyond the Grave
The French capital of Paris has far more dead than living. Deep in its bowels lie millions of corpses. From the catacombs to the city's most famous cemeteries. What part have the dead played in the history of Paris? Have the lost souls revealed all of their secrets? To find out, we must investigate.

General
Complete name : Mysteries.Of.Paris.Series.1.1of6.Allan.Kardec.and.Spiritism.1080p.mp4
Format : MPEG-4
Format profile : Base Media
Codec ID : isom (isom)
File size : 926 MiB
Duration : 24 min 16 s
Overall bit rate mode : Variable
Overall bit rate : 5 333 kb/s

Video
ID : 1
Format : AVC
Format/Info : Advanced Video Codec
Format profile : [email protected]
Format settings, CABAC : Yes
Format settings, ReFrames : 4 frames
Codec ID : avc1
Codec ID/Info : Advanced Video Coding
Duration : 24 min 16 s
Bit rate : 5 200 kb/s
Maximum bit rate : 20.5 Mb/s
Width : 1 920 pixels
Height : 1 080 pixels
Display aspect ratio : 16:9
Frame rate mode : Constant
Frame rate : 29.970 (30000/1001) FPS
Color space : YUV
Chroma subsampling : 4:2:0
Bit depth : 8 bits
Scan type : Progressive
Bits/(Pixel*Frame) : 0.084
Stream size : 898 MiB (97%)
Encoding settings : cabac=1 / ref=1 / deblock=1:0:0 / analyse=0x3:0x113 / me=hex / subme=2 / psy=1 / psy_rd=1.00:0.00 / mixed_ref=0 / me_range=16 / chroma_me=1 / trellis=0 / 8x8dct=1 / cqm=0 / deadzone=21,11 / fast_pskip=1 / chroma_qp_offset=0 / threads=6 / lookahead_threads=2 / sliced_threads=0 / nr=0 / decimate=1 / interlaced=0 / bluray_compat=0 / constrained_intra=0 / bframes=3 / b_pyramid=2 / b_adapt=1 / b_bias=0 / direct=1 / weightb=1 / open_gop=0 / weightp=1 / keyint=300 / keyint_min=30 / scenecut=40 / intra_refresh=0 / rc_lookahead=10 / rc=abr / mbtree=1 / bitrate=5200 / ratetol=1.0 / qcomp=0.60 / qpmin=0 / qpmax=69 / qpstep=4 / vbv_maxrate=62500 / vbv_bufsize=78125 / nal_hrd=none / ip_ratio=1.40 / aq=1:1.00
Encoded date : UTC 2018-05-17 21:44:09
Tagged date : UTC 2018-05-18 11:58:13
Color range : Limited
Color primaries : BT.709
Transfer characteristics : BT.709
Matrix coefficients : BT.709

Audio
ID : 2
Format : AAC
Format/Info : Advanced Audio Codec
Format profile : LC
Codec ID : 40
Duration : 24 min 16 s
Bit rate mode : Variable
Bit rate : 160 kb/s
Maximum bit rate : 237 kb/s
Channel(s) : 2 channels
Channel positions : Front: L R
Sampling rate : 44.1 kHz
Frame rate : 43.066 FPS (1024 spf)
Compression mode : Lossy
Stream size : 27.8 MiB (3%)
Encoded date : UTC 2018-05-18 11:58:10
Tagged date : UTC 2018-05-18 11:58:13

Text
ID : 3
Format : Timed Text
Codec ID : tx3g
Duration : 23 min 50 s
Bit rate mode : Variable
Bit rate : 81 b/s
Stream size : 14.2 KiB (0%)
Forced : No
Encoded date : UTC 2018-05-18 11:58:12
Tagged date : UTC 2018-05-18 11:58:13


Screenshots:

Bonne Pioche - Mysteries of Paris: Series 1 (2018)

Bonne Pioche - Mysteries of Paris: Series 1 (2018)

Bonne Pioche - Mysteries of Paris: Series 1 (2018)

Bonne Pioche - Mysteries of Paris: Series 1 (2018)